&title=いますぐ輪廻
&artist=なきそ
&first=-1.2
&des=缘雪
&lv_5=13+
&inote_5=(145){4},,,,E5,
Cf/1>8[4:1],{8},,,4,
3,2,{4}1>8[4:1]*>8[4:1],{16},,,,,,3,4,
{8}3h[8:1],1,{16}6,5,{8}6h[8:1],8,1,1h[4:1],2,
8h[4:1],7,2,{24}8,7,6,{4}5>8[4:1],B5/B4,
Cfh[4:1],1>8[4:1],{8},,,4,
3,2,{4}1>8[4:1]*>8[4:1],{16},,,,,,1,2,
{8}3<8[4:1],5h[4:1],{16},,,,,,1,5,{4}1,
2qq4b[8:1],{8}2b,{16}7,6,{8}5,{16}3,4,{8}3,2,
{16}6,5,{8}7,8/1,{16}2,3,{8}5x/4x,{16}6,5,{8}6,7,
{16}3,4,{8}2,5/3,{16}2,4,{8}2,{16}7,5,{8}7,6/4,
{16}2,1,{8}2,4/6,{16}7,5,{8}7,{16}2,4,{8}2,3/5,
{4}4/7-4[8:1],{8}1b/7,{16}3,3,{8}4x,5/2,{16}6,5,{8}6,
{16}3,4,{8}3,8b/2,{16}6,6,{8}5x,4/7,{16}3,4,{8}3,
{16}6,5,{8}6,2b/5,{16}3,4,{8}2,{16}6,5,{8}7,4/6,
{16}3,5,{8}3,2/4b,{16}7,8,{8}7,{16}1,8,{8}1q4[4:1],7,
{4}1,{8}7-5[8:1],4x,7,4,8-4[8:1],3,
8,3,7-5[8:1],4,7,4,{4}4w8[8:1],
4,{8}6/5,7,6/5,3,5/4,6,
5/4,2,4/3,5,4/3,1,{4}8-4[8:1]/5-7[8:1],
8/5,{8}7,{16}5,6,,4/5,,4/3h[16:5],,,{8}2-7[8:1],
{4}2,5h[4:1],{24}4,3,2,1,8,7,{16}6/5,C,{48},,,,,,{12}6,
5,{48},{16}7/8,{48},,,,,,,,,,,,{12}3,4,{48},{16}2/1,,,{8}2h[8:1],
3h[8:1],4,{16}5,5,6,6,{8}7h[16:3],{16}1,1,,,{8}8-4[8:1],
1,8,{4}1>8[4:5],,C,
{8},,,,,,,1-5[8:1],
8,1,{4}8<1[4:5]*<1[4:5],,C,
{8},,,,,,,1/2,
3/8,7/4,{4}5/6pp5[4:1],{8},,4,8/7,
6/1,2/5,{4}4/3qq4b[4:1],,B5/B6/E6,
{8},4/7h[8:1],{4}5h[2:1],,3h[8:3],
{8},1>7[4:1],,7xV53[8:1],,,{4}8h[4:1],
{32}4x,7x/3x,{16}2/6,,,1b,8,2,7,{8}3-5[8:1],5-1[8:1],,7,
6,5,{16}1>4[8:1],8,2,7,{8}1,8,{16},,2-5[8:1],1,
{8}3,2,{16}7-4[8:1],8,{8}6,7,1,1h[4:1],3,
8h[4:1],6,1,{24}8,7,6,{4}5>8[4:1],C,
B4/B5f,{16}8<5[8:1],4,8>3[8:1],4,{8}8,8,,8,
7,6,{16}1>4[8:1],5,1<6[8:1],5,{8}1,1,{16},,4,3,
{8}2,{16}8,7,{4}6,{16},,7/3,6/2,{4}5/1h[4:1],
7b-3b[16:1],7b/1,{16}E4,B4,B5,E6,{8}8h[4:1],6,
1h[4:1],3,8h[4:1],7,2h[4:1],3,5h[4:1],4,
3h[4:1],4,{4}4w8[8:1],4,{8}3/5,4h[8:1],
5h[8:1],6h[8:1],7h[8:1],8h[8:1],1h[8:1],2h[8:1],3h[8:1],4h[8:1],
5h[8:1],6,{4}8-4[8:1]/7-5[8:1],7b/8b,6h[2:1]/B1/E2/B2,
{16},,,,1-5[8:1],8,2,7,{4}1b,3b/6b,
C,C,C,C,
C,C,C,C,
B5/C,C/B3,B1/C,C/B7,
E6/C,E4/C,E8/B8/B1/E2,{8}4b/5b,{16}3,3,
{8}4,{16}6,5,{8}6,7,{16}3,4,{8}2,1/8,{16}6,6,
{8}5,{16}3,4,{8}3,2,{16}6,5,{8}7,4/6,{16}3,1,
{8}3,{16}7,1,{8}7,1,{16}8,2,{8}8,5/3,{16}6,8,
{8}6,{16}2,8,{8}2,1>4[8:1],{4}4<7[8:1],{16}E5,E6,E7,E8,
{4}E1,1/5h[4:1],B5,2/6h[4:1],
B6,3/7h[4:1],B7,4/8h[4:1],
B8,5/1h[4:1],B1,6/2h[4:1],
B2,{8}7/3h[4:1],6,{4}5,{16}2,4,3,5,
{8}4-8[8:1],6,,1,2,3,{16}7,5,6,4,
{8}5-1[8:1],3,,,2,{16}8,1,{4}8<5[8:1],
{16},,2,3,{4}4h[4:1],{8}8<4[8:1],2/6,{24}8b/4,3,2,1,,,{8}2-6[8:1],
1,2/7<4[8:1],8,7/1-4[8:1],2,1/5<8[8:1],6,
1v3[8:1]/5v7[8:1],3x,{16}5b/1b,,,8,4,7,3,6,{8}2h[4:1],5,
4h[4:1],3,1h[4:1],2,8h[4:1],7,1h[4:1],2,
4,5/3,4/6-3[8:1],7/5,{4}8/6,{16}2x,4,3,5,
{8}4,{16}8,8,7,5,6,4,{8}5,{16}3,4,{8}3,5/1>5[8:1],
5<1b[8:1],{16},,,,E2,E3,{8}E4,{16}6,7,{4}8h[2:1],
{8}4h[4:1],,,4/8,4/8<4[8:1],6/2,{24}8b/4bx,3,2,1,,,{8}6/4-2[8:1],
3,5-7[8:1],6,5/3-5[8:1],2,1-3[8:1],8,
1/7-5[8:1],8,7/1-5[8:1],8,1/6>2[8:1],2<6[8:1],{4}6,
{8}2-6[8:1],6-4[8:1],,,,2h[8:1],3h[8:1],4,
{4}8-6[8:1]/1-6[8:1],1-3[8:1]/8-3[8:1],1-5[8:1]/8-4[8:1],1b/8b,
{8}6/3,{24}1b,2,3,{8}4,{24}7b,6,5,{8}4,{24}2b,3,4,{8}5,{24}1b>6b[4:1],8,7,
{8}6,Cfh[4:1],{16},,,,,,B2,B3,{4}B4,
{24},,,1,8,7,{4}6-3[8:1],{2}Ch[8:1],
E
