&title=勾指起誓
&artist=ilem
&first=-2.53
&des=
&des_6=Yui
&lv_6=13.5
&inote_6=(85){4},,,,{1}2qq8qq6qq4qq2[8:13],
,8>2q8<6p8-4[8:13],
{4},,,,6h[4:1],
5,{8}3,4,{4}5/2,
3h[4:1],4,{8}6,5,{4}5/7,
4/6h[4:1],4,{8}3/4,3,4/2,5h[16:5]/4h[16:5],
{32},,,,,,,,3,4,{16}3,2,2,{32}6,5,{16}6,{8}7b/5b,6h[8:1],4,
3/6h[8:1],2,2/6h[16:3],1,8/6h[8:1],7,7/6h[16:3],8,
8/7,{16}8,7,{8}8>5[8:1],7/1,{4}8b/2b,{8}3h[8:1],5,
6/3h[16:3],7,8/3h[8:1],1,2/3h[4:1],1,{16}2<4[2:1],,,3,
{8}2,3,2,1,{4}8,{8}4/5-1[8:1],E7,
5/4-2[8:1],3,4/8-6[8:1],7,8/1-5[8:1],E3,{4}1<5[4:1],
5>1[4:1],1<5[4:1],5b,1-3[8:1],
1-6[8:1]*-4[8:1],1-5[8:1]*-7[8:1],1-3[8:1]*-4[8:1],1,
{8}1-4[16:1]/8-5[16:1],{16}7,2,{8}1/8,3/6,{4}7/2,{8}2h[8:1],7-5[8:1],
2h[8:1],7,3h[16:3],6-8[8:1],3h[8:1],6,{16}2h[4:1],,,8h[16:3],
,,E4,E8,E5,E7,{8}E6,{4}7b,{8}6h[8:1],1>3[8:1],
6h[8:1],1,7h[16:3],4>2[8:1],7h[8:1],4,{16}6h[4:1],,,2,
,,1x<5[4:1],8x<5[16:3],{8}7x<5[8:1],3,{4}4h[4:1],{8}8-3[8:1],4h[8:1],
8-5[8:1],4h[8:1],8-3[8:1],{16}4,4h[16:3],{4}8-5[8:1],{16}8,,,1,
{8}1,{16}E6,E2,E5,E3,{8}E4,{4}2b,{8}1-7[8:1],B2,
3-1[8:1],B4,5-3[8:1],B6,7-5[8:1],B8,{4}1-5>4[16:3],
{8}1>3[4:1]*<7-3[2:1],{16}7x,8x,{4}1x,{8},,,,6/5,
5/4,4/3h[8:1],{16}4h[16:1],5,{8}6/5,5/4,4/3h[8:1],{16}4h[16:1],5h[16:1],
{8}6h[8:1],{16}5h[16:1],4h[16:1],{8}3h[8:1],{16}4h[16:1],5h[16:1],{32}6h[4:1],,,,,,,,,7,8,1,2,3,4,5,
{8}6/7,6/5,5/4h[8:1],{16}5xh[16:1],6xh[16:1],7xh[16:1],8xh[16:1],1xh[16:1],2xh[16:1],3xh[16:1],4xh[16:1],5xh[16:1],6xh[16:1],
{8}7,6/5,5/4,4/3,{16}4/5,4,3/6,6,2/7,2,1/8,8,
{8}2/1,1/8,8/7h[8:1],{16}8h[16:1],1,{8}2/1,1/8,8/7h[8:1],{16}6xh[16:1],5xh[16:1],
4xh[16:1],3xh[16:1],2xh[16:1],1xh[16:1],8xh[16:1],7xh[16:1],6xh[16:1],5,4,5,4,5,{64}3h[8:1],E7,B6,B5,{16}E5,,4,
3,4,2,5,4,5,3,6,5,6,5,7,2,4,3,5,
{8}5/4,4/3,5-8[8:1]/4-1[8:1],5/6,{4}5b/4b,{8}3/7pp5[4:1],B5,
{4}7,{8}2pp1[4:1],B4,{4}2/7,{8}8-5[8:1],E7,
8/2-6[8:1],B1,2/8w4[8:1],E7,{4}8b,{8}6h[2:1]/3-7[32:3],4,
{4}3-5[16:1],3-1[16:1],{8}3/7-3[32:3],B1/B5,{4}7>3[4:1],
3<7[4:1],7>3[4:1],3,{8}1-6[8:1],3/7,
3x/1-4[8:1],5x,7x/1-6[8:1],5x,3x/1-4[8:1],5x,7x/1-6[8:1],5x,
3x/1-5[8:1],B2,1/7-3[32:3],B6,{4}7b/E1,{8}5/4-8[8:1],E3,
4/5-7[8:1],6,5/1-3[8:1],2,1/8-4[8:1],E7,{4}8>4[4:1],
4<8[4:1],8>4[4:1],4,{8}6h[8:1],4,
6h[16:3],3>1[8:1],6h[8:1],3,6h[16:3],8>2[8:1],6h[8:1],8,
6h[16:3],8,8>3[8:1]/7<4[8:1],1/6,{4}8/7,{8}3h[8:1],2,
3h[16:3],1-7[8:1],3h[8:1],1,3h[16:3],7-5[8:1],3h[8:1],7,
3h[16:3],5,5<8[8:1],6/4,{4}5/3h[4:1],{8}7-2[8:1],1,
3/7-5[8:1],4,3/7-2[8:1],1h[16:1],3/7-5[8:1],4,{16}7/3,,,2,
{8}2,{16}E8,E4,E7,E5,{8}E6,{4}7b/5b,{8}6/2-8[8:1],7,
6/2-5[8:1],4,6/2-8[8:1],7h[16:1],6/2-5[8:1],4,{4}6/2<4[4:3],
{8}3,2,1-4[4:1],2,{2}1,
{8}7/1-6[16:1],8,{64}1x/3,E1,B8,B7,,,,,{8}2,{64}7/1-6[16:1],2x,3x,4x,,,,,{8}8,{64}1/3,E1,B8,B7,,,,,{8}2,
{64}7/1-6[16:1],2x,3x,4x,,,,,{8}8,{64}1x/3,E1,B8,B7,,,,,{8}2,{64}1x,2x,3x,4xh[64:5],,,,,,,,,,,,,{8}4-1[16:1],3/5,
{64}4/7,B3,B2,E2,,,,,{8}8,{64}7x/1-4[16:1],6x,{32}5x,,,{8}2,{64}1/6,B2,B3,E4,,,,,{8}5,{64}6x/4-1[16:1],7x,{32}8x,,,{8}3,
{64}4/7,B3,B2,E2,,,,,{8}8,{64}1-4[16:1]/7x-4[16:1],6x/2x,{32}5x/3x,,,{8}2/6,{64}7b/1b/E2f/E7f,B2/B6,B3/B5,E4/E5,,,,,,,,,,,,,{8}8/1-5[16:1],3,
{64}1/2,E3,B3,B4,{16}E5,{8}3,1/8-4[16:1],6,{64}8/7,E7,B6,B5,{16}E5,{8}6,8/1-5[16:1],3,
{64}1/2,E3,B3,B4,{16}E5,{8}3,1/8w4[16:1],7/1,{4}8b/Cf/B8/B4,{8}1-7-5[4:1],E8,
5-3-1[4:1],E4,1<5[4:1],A8,5>1[4:1],A4,{4}1<5pp5[4:3]*>5qq5[4:3],
,,,,{1}6h[1:1],
3h[1:1],
5h[1:2],
4h[1:1],
{16},,B8/B7,B8/B7,{8}4,{16}B7/B6,B7/B6,{8}3h[4:1],6,6h[4:1],{16}B1/B2,B1/B2,
,,B2/B3,B2/B3,{8}5,{16}B1/B2,B1/B2,{8}5h[2:1],3,{4}4h[4:1],
,,{2}5/4,
{1}3>5[4:3]/6<4[4:3],
E
