&title=Salt, Pepper, Birds, and the Thought Police
&artist=Mili
&first=-0.02
&des=哈基鸟盐时候
&lv_5=13+
&inote_5=(156){4},{12},,,,,,,,,,,,,,,{6}6/5,
{12}7,5,,4,
{24},,,,7,6,{4}5pp4[2:1],{12},,{3}1h[12:1],
{6}2h[6:1],{12}4,3,,5,{6}4,{12}4,6,,6h[3:1],
{24},,,,,,5,4,{3}3,8h[12:1]/1h[12:1],
{4}2h[4:1],4>1[6:1],6,5<8[6:1],
2,4-8[6:1],7,5-1[6:1],
2,4,{6}5/7,{12}5h[12:1],6,,4/3h[3:1],
,,,{4}1bp4[6:1],,2<5[4:1],
{2}7h[4:1],{6}3,{12}3,5,,5h[4:1],
,,4>1[6:1],5,,,{6}6,7h[3:1],,1,
{12}1,8,,8,{6}5>2[6:1],{12}6,5,,7h[4:1],
,,1,8p4[6:1],,,,,,{4}2h[4:1],
1-5[6:1],8/1,{6}6h[6:1],{12}5,6,4,5-1[6:1],
,,,{4}2,{6}3h[6:1],{12}4,3,5,4-8[6:1],
,,,7,,5bV74[3:1]*qq3[3:1],,,,,,,,,,,,,{2}4bqq1[12:5]*pp7[12:5],
{12},,,,,8,{6}2h[6:1],{12}4,3,5,4>1[6:1],
,,,{4}6,{6}7h[6:1],{12}5,6,4,5<8[6:1],
,,,2,,4b>5[12:7]*<3[12:7],,,,,,,,,,,,,7,
5,6,2,4,3,
{6}8b,{12}4,3/5,,1/5h[3:1],{24},,,,,,1,8,7,6,5,4,
{12}3,1,,8<3[4:1],,1h[3:1],,,,,,2,
{6}4,{12}6,4,,8b/2bq5[3:1],,,,{4}6h[12:5],
{12},,5qq3[6:1],5,,7,,,6,6,,2,
5,3,4,1,,7,{4}5<2[4:1],3h[4:1],
{12},,,5/3p6[4:1],,3/5h[3:1],,,,,,,{6}7,
{12}7,5<8[12:1],,5b/2b>5[12:1],,,2b,,,7,
5,6,3,4,1,8,{4}2h[4:1],{32}7,8,1,2,3,4,5,6,
{4}7/2q6[6:1],{12}8/2,,7<4[6:1],,,8,8,,1qq8[4:1],
{6}4,{12}6,6,,4q1[6:1],,,2,2,,,{6}1,
2/8<5[6:1],{12},4>1[6:1],,,,{4}8q4[6:1],
{12}4<3[12:5],,,,,1h[3:1],,,,,,2,
{6}4,3>1[8:1],{12},3/8p4[6:1]*v5[6:1],,,,,,,{4}3>8[6:1],
{12}7<4[6:1]*p3[6:1],,7,,,,,,3qq8[2:1],
,,6,6,,5p4[3:1],{4},,,{16},,,{48},{24}5h[24:1],
{2}4b,
{12},,,,,,6,4,5h[12:7],3h[2:1],,,,,,,,,{2}4h[4:1]/6<3[2:1],
{12},,,,,,3,5,4h[12:7],6h[2:1],,,,,,,,,{2}5h[4:1]/3>6[2:1],
{12},,,,,,3,4,2q5[4:3],5p2[3:2],{1},{24},{16}5,
4,
{2}5-1[8:1],{6}2/8,{12}3,4,{6}5/3,
7/5,{12}6,5,{6}7,8b>3[12:1],4b,5b<3[24:5]*qq4[24:7],
{2}7b,{6}3h[6:1],{12}5,1h[6:1],,7,
1,8,2,7h[4:1],,,{6}3h[6:1],{12}6,1h[6:1],,6,
5,7,4,8,,3h[4:1],{6}1b,{12}8h[4:1],2b,,1,
8,2,7,3h[4:1],,,2,3,4,2,3,4,
{4}6/5-1[6:1],8,{6}7<4[6:1],{12}3,3,,,{6}1q5[6:1],
{12}6,6,,,{6}8pp2[4:1],{12}2,2>5[6:1],,5<8[6:1],
{4}5,1p5[8:1]*q5[8:1],1b,{12}6,5,6,
{4}7/4,{12}3,4,2,{4}1/6,8w4[8:1],
8,6/2,{6}3h[6:1],{12}5,1h[6:1],,8,
1,7,2,6h[4:1],,,{6}3h[6:1],{12}6,1h[6:1],,4,
2,6,4,7h[12:5],,,{6}5b,{12}4h[4:1],6b,,6,
5,7,4,8h[6:1],,4q8[6:1]*-1[6:1],,,,,,,{6}8/1,
{12}7,5,,4bqq1[2:1]/6bpp1[2:1],,,,,,,,,,,,,{2}2b>5[4:1]/8b<5[4:1],
{4},5h[6:1]/4h[6:1],{12},,2,,,5,
{32}3h[4:1],4h[32:7],,,,,,,,,,,,,,,{2}5/2,
{12},,6,5/7,,8/3h[3:1],{24},,,,,,2,1,8,7,6,5,
{12}4,1bqq7[6:1],,7>4[4:1],,8h[3:1],,,,,,8,
{6}5,{12}3,5,,1b/7bp4[3:1],,,,{4}2h[4:1],
{12},,2pp3[24:5],2,,8,,,6,6,,3,
4,2,8,1,7,7,{4}5>7[4:1],3h[4:1],
{12},,,2/6pp3[3:1],,6/2h[3:1],,,,,,,{6}2/8,
{12}3,5>2[12:1],,5b/7b>2[12:1],,,7b,,,2,
4,3,6,5,7,1,{4}8h[4:1],{32}2,1,8,7,6,5,4,3,
{4}2/7>1[8:1],{12}7/2,,3p6[6:1],,,6,6,,8qq1[3:1],
{6}5,{12}3,3,,2q8[24:5],,,1,1,,,{6}8,
1/7<4[6:1],{12},3>8[6:1],,,,{4}7q3[6:1],
{12}3<2[12:5],,,,,1h[3:1],,,,,,2,
{6}4,3>1[8:1],{12},3/8v3[6:1]*q4[6:1],,,,,,,8,
4,6,2,,1b/5h[3:1],,,,4>6[4:1],7,1h[3:1],
4,,,,,5h[3:1]/2bpp7[3:1],,,,,,,{6}8<5[6:1],
{12}4,8,,2>5[6:1],,,6,6,,,{6}8,
{12}8,2,,4b/6b<1[6:1],,,,{4}3,
{6}1/3,{12}2,4,,7b/1bpp6[3:1],,,,{4}8h[4:1],
{12},,7,5,{24},,4/2,1,8,7,6,5,4,3,{4}8b/2bpp8[3:1],
{6}2/6,{12}7,7,,6>3[6:1],,,1,1,,,{6}2/8,
3q5[4:1],{12},5b/3b,,,7b>2[8:1],,,3bqq6[3:1],
{4}3b,7h[16:3],{12},,7,5>7[4:1],,3,
5,,,,,6/1q5[6:1],,,8,8,,7<4[6:1],
{6}5,{12}2,2-6[6:1],,,{6}2/8,{12}7,7,,6,
{6}8,{12}2,4,,7,5,6,2,4,3,8,
6,7,1>7[3:1],3,,8h[3:1],,,,,,,{6}7/1,
{12}6,4,,8/2pp5[12:7],,,6,6h[2:1],,,,,,,,8bp5[12:5]*q3[12:5],
,,,,,,,,,6,
,8q8[12:5]*p8[12:5],{4},,,{16},,,{48},{24}8h[24:1],
{2}1b,
E
