&title=东北人都是活雷锋
&artist=老张
&first=0.04
&des=跑了
&lv_5=好啦
&lv_6=跑啦
&lv_7=撞啦
&inote_5=(71)
{32}1/8,,,,2,,,,4,,,2,1,,,,8/1,,,,7,,,,5/1,,,,2,,3,,4/5h[96:23],,,{96},,
{32}4,,4,,3<6[16:1],,,,1/2,,,,3,,,,8,,7/4,,3-6[24:1],,,2,1,,,,
{32}C1f,,,,7,,,7,5,,,,2/6,,,,3,,,,2,,,2,8,,8,,6V84[32:3]/1,,2,,3,,,,
{32}6,,3,,2h[16:2],,,,1pp8[16:2],,,,8/3,,,,1,,7,,6w2[16:1],,,,4,,,,,,,,
{32}8,,,8,4,,,4,7,,,,2/6,,,,1,,,1,5,,,5,1,,,,2/7,,,,
{32}3/4-8[16:1],,3,,2h[8:1]/5,,,,4,,,,5v3-1[8:1]*v7-1[8:1],,,,4/6,,4/6,,,,,,,,,,,,,,
{32}2v5[16:1]/8v5[16:1],,3,,4/6,,,,2/8,,,,6h[16:4]/4b,,3b,,2b,,1bq8[16:1],,8b,,
{32},,,,,,,,1,,,1,6,,,,1,,,,8/2,,8/3,,8/4,,7/5,,6/5,,,{96},,
{32}B1f,,,,4/5,,,,3,,2,,1v7[16:1]/5,,,,1v3[16:1]/4,,,,1-5[16:1],,,,1,,,,1,,
{28}4,,3,,2,,{32}1h[16:2],,,,4,,5,,6z2[16:4]/4,,3,,1/8,,,,2/6,,3,,4,,,,4pp6[16:2],,,,,,
{32}3,,2pp4[16:2],,,,,,,,8pp2[16:2],,,,,,,,6pp8[16:2],,,,,,5,,4,,,,,,,,
{32}3-5[16:1]/6,,,3,3-1[16:1],,6,,3,,8,,3,,6,,
{32}7h[32:3],,,8,6-2[16:1],,8,,5,,5,,4/6,,,,
{32}7-5[16:1]/3,,,7,7-1[16:1],,4,,7,,2,,7,,4,,
{32}2h[32:3],,,8,3-7[16:1],,1/8,,2,,2,,8/3,,,,
{32}3-5[16:1]/6,,,3,3-1[16:1],,6,,3,,8,,3,,5,,
{32}6h[32:3]/4,,,4,7-3[16:1],,4/8,,6,,6,,4/7,,,,
{32}2h[8:1]/5h[8:1],,,,,,,,7h[8:1]/4h[8:1],,,,,,,,
{32}1/8h[8:3],,,1,1,,1,,1,,1,,1,,2,,
{32}3/6,,4,5,4,,3/6,{96},,,{32}3/6,,5,,6,,7,,4h[8:3]/8,,,8,8,,8,,8,,8,,8,,1,,
{32}2/5,,3,4,3,,2/5,,2/5,,3,,4,,5,,1h[8:3]/6,,,6,6,,6,,6,,6,,6,,7,,
{32}3/8,,2,1,2,,3/8,,3/8,,4,,5/2,,6,,7/4h[8:3],,,7,7,,7,,7-4[16:1],,7,,7,,3,,
{32}7b/2b-7[16:1],,,,,,,,5b-2[32:16]/2b,,,,4,,3,,2b/5b,,,,,,,,,,,,,,,,1b,,
{32},,,,,,,,,,,,,,{128},,1/8,2/7,3/6,{96}4/5,,1b/2b,,
&inote_6=(142)
{16}3/5,,,,2,,,2,3,,,3,2,,,2,1/3,,,,6,,,8,6/8,,,,2/6,,3/7,,4/8,,,{92},,,,,
{16}3<5[8:1]/6,,3/6,,3/5>1[8:1],,,,6h[8:2],,,,8<5[8:1],,,,1,,3,,,,,,,,,,
A1f/A2f/A3f/A4f/B1f/B2f/B3f/B4f/E2f/E3f/E4f/D2f/D3f/D4f/A8f/A7f/A6f/A5f/B8f/B7f/B6f/B5f/E1f/E8f/E7f/E6f/D8f/D7f/D6f/D5f/D1f/E5f/C1f,
{4},,,{16},,,1/6,,,,{16}2,,,2,1/7,,1,,2/4,,3/5,,4/6,,,{64},,,,
{16}5>2[8:1]/6,,6,,6<1[8:1]/5,,,,5/6,,,,
{32}3,4,5,6,7,8,1,2,{16}3/7,,2/6-3[60#32:1]*v3[60#32:1],,,,{4},,,,,
{16},,2-5[8:1]/8,{16},,,2/7,,,6,5/7,,,3,2/4,,,,1/8,,,,
{8}2-4[8:1]/5,4-8[8:1],6<1[8:1],,,,A1f/A2f/A3f/A4f/B1f/B2f/B3f/B4f/E2f/E3f/E4f/D2f/D3f/D4f/A8f/A7f/A6f/A5f/B8f/B7f/B6f/B5f/E1f/E8f/E7f/E6f/D8f/D7f/D6f/D5f/D1f/E5f/C1f,,A1f/A2f/A3f/A4f/B1f/B2f/B3f/B4f/E2f/E3f/E4f/D2f/D3f/D4f/A8f/A7f/A6f/A5f/B8f/B7f/B6f/B5f/E1f/E8f/E7f/E6f/D8f/D7f/D6f/D5f/D1f/E5f/C1f,A1f/A2f/A3f/A4f/B1f/B2f/B3f/B4f/E1f/E2f/E3f/E4f/D2f/D3f/D4f/A8f/A7f/A6f/A5f/B8f/B7f/B6f/B5f/E8f/E7f/E6f/D8f/D7f/D6f/D5f/D1f/E5f/C1f,,,,,,{64},,,,,,,,
{8}2-6[8:1]/7,3/6-2[8:1],2/5,,8b-2[8:1]*-5[8:1],,8,,8b,8b-2[8:1]*-6qq5[8:2],,,,{8}Cf,,,,,,,{64},,,,,,,{8}4/5,4/6,4/7,4/8,2bv4[8:1]/6bv8[8:1],,,,
{8}3-8[8:1],,3/5,6,7-4[8:1]/8,,1q7[8:2]/7,,7p2[8:2],,2q6[8:2],,7,,7,8,1h[8:4],,
{8}3,4,5s1[8:2],4/6,5,,2,3,4-1[8:1]/7,6,4/2,3,,{64},,
{8}4,3p5[8:2],,5p7[8:2],,7p1[8:2],,1p3[8:2],,3p5[8:2],,5p7[8:2],,7-4[8:1],,8b,,
{16}3/6,,,2,1/2V47[8:2],,3/8,,2/7V52[8:2],,7,,8,,8,,
{16}7h[8:5],,,5,5,,4-1[8:1],,4-7[8:1],,4,,4,,,,
{16}1/8,,,2,3V17[16:3]/4,,5,,6V82[16:3]/3,,5,,4,,5,,
{16}7h[8:5],,,4,4,,3-1[8:1],,3-5[8:1],,3,,3,,,,
{16}1/8,,,7,5,,4,,8/2,,3/4,,1/7,,5/6,,7h[8:4]/2,,,1,1-4[8:1],,1-6[8:1],,1-5[8:1],,1,,1,,,,
{16}8/1,,,2,4,,3,,1/7,,4/5,,2/8,,4/5,,
{24}1/7,2,3,4,5,6,{32}7,8,1,2,3,4,5,6,{48}7,8,1,2,3,4,5,6,7,8,1,2,3,4,5,6,7,8,{64}1,2,3,4,5,6,7,8,
{16}1/C1f,,3,4,2/5,,1/8,,5,3,7,1,5w1[12:1],,
{16}4/6,,5b,,,2,1/3-6[12:1],,8b-5[12:1],,3,,8,,1b,,,,
{16}8/1,,6,5,7/4,,1/8,,1,7,3,5,1w5[12:1],,
{16}3/7,,1b,,,3,8-4[12:1],,7b-3[12:1]/1b,,8,,7,,1b,,,,
{16}5/4,,4-8[12:1]/5-1[12:1],3/6,2/7,,4/5,,2>5[8:1],,6,,8<5[8:1]/2,,
{16}7,,2b/8b,,,4,3-1[12:1],,5b-8[12:1]/2b,,3,,5,,2b,,,,
{48}2b/8b,3/7,4/6,5,,,,{16},,,,,,{48}1b/7b,2/6,3/5,4,,,{16},,8-4[8:1],,2/6,,8bw4[8:7]/1b,,
{16},1,1,,1,,1,,1,,1,,,,8b,,,,,,,,,,,,,,{24},{12},1?s5[999#8:1],5?qq5[999#8:1]`5?-8[999#8:1],
&inote_7=(142)
{16}3/5,,,,2,,,2,4,,,4,2,,,2,1/3,,,,6,,,6,8,,,,2,,3,,4/7,,,{92},,,,,
{16}3/5,,3,,3h[16:4]/4>1[8:1],,,,,,,,4/8,,,,2/6,,3-6[60#48:1]/7,,,,,,,,,,A6f,
{4},,,,,{16},,,1/6,,1,,2,,3,,5,,,{64},,,,{16}4/6,,6,,5<8[8:1]/7h[8:2],,,,,,,,
{16}1/5,,,,3/7,,2/6-3[60#32:1],,,,{4},,,,,,{16},,2/7,,,3,4,,,4,3,,,,2/5,,,,
{8}5/6h[8:4],5,7,,8,,Cf/7b,,2b/Cf,8bv3[8:1]*v5[8:1],,,,,,{64},,,,,,,,
{8}2/4,3,5-8[8:1]/6-3[8:1],,,,8-2[8:1],2-7[8:1],7-3[8:1],3-6[8:1],6-4[8:1],,,
{8}Cf,,,,,,,{64},,,,,,,{8}4/5,4/5,4/5,3/6,1b/8b,,,,
{8}4qq1[8:4],,4/5,6,7,,8p1[8:2],,1q7[8:2],,7p2[8:2],,2,,4,3,2h[8:6],,
{8}7,8,1s5[8:2],,1,,4,3,2-6[8:1],1,7-3[8:1],,,{64},,
{8}4,3p6[8:3],,,,6q4[8:3],,,,4p5[8:3],,,,5v4[8:1],,,,
{16}3/6,,,2,4,,5,,4/7,,6,,1/4,,3,,2h[8:6]/Cf,,,Cf,Cf,,Cf,,Cf,,Cf,,Cf,,,,
{16}1/8,,,7,5,,4,,5/2,,3,,8/5,,6,,7h[8:6]/B2f,,,B2f,B2f,,B2f,,B2f,,B2f,,B2f,,,,
{16}1/8,,,7,5,,4,,8/2,,1,,4/7,,5,,7h[8:6]/E3f,,,E3f,E3f,,E3f,,E3f,,E3f,,E3f,,,,
{16}8/1,,,2,4,,3,,1/7,,1/7,,2/8,,2/8,,
A1/B1/C1f/B5/A5/A7/B7/B3/A3,,A2/B2/C2f/B6/A6/A8/B8/B4/A4,,A1/B1/C1f/B5/A5/A7/B7/B3/A3,,A2/B2/C2f/B6/A6/A8/B8/B4/A4,,A1/B1/C1f/B5/A5/A7/B7/B3/A3,,A2/B2/C2f/B6/A6/A8/B8/B4/A4,,A1/B1/C1f/B5/A5/A7/B7/B3/A3,,,,
{16}1/8,,3,4,2/5,,7,,1-5[8:1]/8,,3,,1/8-3[8:1],,
{16}6,,1b/8b,,,2,1-7[12:1],,2b-5[12:1]/8b,,1,,2,,8b,,,,
{16}8/1,,6,5,7/4,,2,,8-4[8:1]/1,,6,,8/1-3[8:1],,
{16}3,,8b/1b,,,7,8-4[12:1],,7b-3[12:1]/1b,,8,,7,,1b,,,,
{16}5/4,,3,7,1,,3/7,,1/2-6[8:1],,7/8-3[8:1],,2,,
{16}8,,4b,,,6,5-8[12:1],,5b-2[12:1]/2b,,5,,5,,7b,,,,
{16}2b/8b,,,1,1-5[8:1],,1,,1b/7b,,8,,8-4[8:1],,2,,8bw4[8:7]/1b,,
{16},1,7,,7,,1,,1,,1,,,,8,,,,,,,,,,,,,,{24},{12},1?s5[999#8:1],5?qq5[999#8:1]`5?-8[999#8:1],
