&title=Like+it
&artist=Ryu*
&first=0
&des=22
&lv_5=12+
&inote_1=
&inote_2=
&inote_3=
&inote_4=
&inote_5=(165){1}
,
{8}47,6,5,4,{16}1,,,1,,,1,,
{8}23,4,5,6,{16}8,,,8,,,8,,
17,,,48,,,26,,45,,,13,,,68,,
45,,36,,7,1,6,8,7-3[8:1],,1b,,1b,,,,
{8}35,4,56,7,38,1,26,3,45,6,17,8,12,3,46,5,
78,6,45,3,28,1,68,7,56,4,38,2,1h[8:1],8h[8:1],6h[8:1],3,
{8}28,1,23,4,{16}3/5,,2,5,2,,51,,
{8}68,7,56,4,{16}3/5,,6,3,6,,37,,
{8}2h[8:1],4h[8:1],5h[8:1],7,{16}1/6,,5,1,4,,13,,
{8}28,17,{16}7-3[8:1],1,6,8,{8}7,1b,1b,,
{16}1-5[8:1]/5,,,6,,,7,,{8}4/7^4[8:1],3,2,1,
{16}2,2,3,,2/4-8[8:1],,3/5-1[8:1],,{8},,,,
{16}8-4[8:1],,,3,,,2,,{8}5/2^5[8:1],6,7,8,
{16}7,7,6,,57,,46,,{8}5w1[8:1],5,5,,
{16}2-6[8:1]/6,,,1,,,8,,27,,8,7,1,,27,,
{16}3,3,4,,56,,45,,2^5[8:1]/8,,,8,,,8,,
{16}7-3[8:1]/3,,,8,,,1,,27,,1,2,8,,27,,
{16}6,6,5,,34,,45,,{8}7-3[8:1],1b,1b,,
{16}
3,4,3,4,2,5,2,5,1,6,1,6,8,7,8,7,1,8,1,8,2,7,2,7,2,4,3,5,4,6,5,7,
5,6,5,6,4,7,4,7,3,8,3,8,2,1,2,1,2,8,3,7,4,6,1,7,2,6,3,5,4,6,3,7,
1^4[8:1],,8,,71,,,7^4[8:1],,8,,17,1,,,,
8,,8,,2,8,1,7,2b,,4b/5b,,7b,,,,
8^5[8:1],,1,,28,,,2^5[8:1],,1,,28,8,,,,
1,,1,,7-3[8:1],1,6,8,7,,1b,,1b,,,,
{8}
1-5[8:1],8,7,6-2[8:1],5,4,3,,
{16}6,6h[8:2],,4,,3,3h[8:3],,{8}1b-5[8:1],1b,1b,,
8-4[8:1],1,2,3-7[8:1],4,5,6,,
{16}4,5,,5,4,,36,,{8}7-3[8:1],1,1,,
1-5[8:1],8,7,6-2[8:1],5,4,3,,
{16}6,6h[8:2],,4,,3,3h[8:3],,{8}1,7,5,,
8-4[8:1]/4,3,2,1,1-5[8:1]/5,6,7,8,
{16}1,1h[8:2],,2,,8,8h[8:1],,{8}7-3[8:1],1,1,,
2h[8:3]/4,5,6,7,38,1,25,3,6h[8:3]/4,5,7,8,15,2,36,4,
5h[8:3]/7,6,4,3,28,1,47,6,5/3h[8:3],4,2,1,48,7,36,5,
{8}24,3,57,6,{16}1h[8:1]/8h[8:1],,,1h[8:1]/2h[8:1],,,23,,
{8}46,5,35,4,{16}7h[8:1]/6h[8:1],,,5h[8:1]/6h[8:1],,,45,,
{8}13,2,68,7,{16}4h[8:1]/5h[8:1],,,4h[8:1]/3h[8:1],,,23,,
{8}17,8,28,1,{16}6h[8:1]/7h[8:1],,,7h[8:1]/8h[8:1],,,18,,
24,,,45,,,57,,18,,,67,,,23,,
1,8,3,6,2,7,4,5,3,7,2,5,1,6,4,8,
{8}1>8[8:4],,,,,1b,1b,,
{16}
7,8,6,1,5,2,4,3,5,4,6,3,7,2,8,1,
8,8,2,1,3,8,4,7,4,5,3,6,2,7,1,8,
3,4,2,5,1,6,8,7,1,8,2,7,3,6,4,5,
4,4,6,5,7,4,8,3,8,1,7,2,6,3,5,4,
7,1,6,2,5,3,5,4,6,4,7,3,8,2,8,1,
7,7,8,6,1,5,2,4,3,1,4,8,5,7,4,6,
2,8,3,7,4,6,4,5,3,5,2,6,1,7,1,8,
2,2,1,3,8,4,7,3,7-3[8:1],,1b,,1b,,,,
6^1[8:1]/5,,4,,56,5,,3^8[8:1],,5,,34,4h[8:1],,,,
2,,2,,2,3,4,5,6b/7b,,4b/5b,,2b/3b,,,,
3-8[8:1]/4,,5,,43,4,,6-1[8:1],,4,,56,5h[8:1],,,,
7,,7,,7,6,5,4,2b/3b,,1b/4b,,5b/8b,,6b/7b,,
18,,1,,18,1h[8:1],,,8,1,,1,1h[8:1]/8,,,,
18,,1,,1^6[8:1],1,1^4[8:1],1,1b-5[8:1],,1b,,1b,,,,
18,,8,,18,8h[8:1],,,1,8,,8,8h[8:1]/1,,,,
18,,8,,8,8,8,8,7-3[8:1],,1b,,1b,,,,
{1}45,,,,E
&inote_6=2,1,3,8,4,7,5,6,4,5,3,6,2,7,1,8,
1,1,7,8,6,1,5,2,5,4,6,3,7,2,8,1,
6,5,7,4,8,3,1,2,8,1,7,2,6,3,5,4,
5,5,3,4,2,5,1,6,1,8,2,7,3,6,4,5,
2,8,3,7,4,6,4,5,3,5,2,6,1,7,1,8,
2,2,1,3,8,4,7,5,6,8,5,1,4,2,5,3,
7,1,6,2,5,3,5,4,6,4,7,3,8,2,8,1,
7,7,8,6,1,5,2,6,3-7[8:1],,1b,,1b,,,,
&inote_7=(165){1}
,
{8}47,6,5,4,{16}1,,,1,,,1,,
{8}23,4,5,6,{16}8,,,8,,,8,,
17,,,48,,,26,,45,,,13,,,68,,
45,,36,,7,1,6,8,7-3[8:1],,1b,,1b,,,,
{8}35,4,56,7,38,1,26,3,45,6,17,8,12,3,46,5,
78,6,45,3,28,1,68,7,56,4,38,2,1h[8:1],8h[8:1],6h[8:1],3,
{8}28,1,23,4,{16}3/5,,2,5,2,,51,,
{8}68,7,56,4,{16}3/5,,6,3,6,,37,,
{8}2h[8:1],4h[8:1],5h[8:1],7,{16}1/6,,5,1,4,,13,,
{8}28,17,{16}7-3[8:1],1,6,8,{8}7,1b,1b,,
{16}1-5[8:1]/5,,,6,,,7,,{8}4/7^4[8:1],3,2,1,
{16}2,2,3,,24,,35,,{8}6-2[8:1],7-3[8:1],,,
{16}8-4[8:1],,,3,,,2,,{8}5/2^5[8:1],6,7,8,
{16}7,7,6,,57,,46,,{8}5w1[8:1],5,,,
{16}2-6[8:1]/6,,,1,,,8,,27,,8,7,1,,27,,
{16}3,3,4,,56,,45,,2^5[8:1]/8,,,8,,,8,,
{16}7-3[8:1]/3,,,8,,,1,,27,,1,2,8,,27,,
{16}6,6,5,,34,,45,,{8}7-3[8:1],1b,1b,,
{16}
3,4,3,4,2,5,2,5,1,6,1,6,8,7,8,7,1,8,1,8,2,7,2,7,2,4,3,5,4,6,5,7,
5,6,5,6,4,7,4,7,3,8,3,8,2,1,2,1,2,8,3,7,4,6,1,7,2,6,3,5,4,6,3,7,
1^4[8:1],,8,,71,,,7^4[8:1],,8,,17,1,,,,
8,,8,,7,5,6,4,2b,,4b/5b,,7b,,,,
8^5[8:1],,1,,28,,,2^5[8:1],,1,,28,8,,,,
1,,1,,7-3[8:1],1,6,8,7,,1b,,1b,,,,
{8}
1-5[8:1],8,7,6-2[8:1],5,4,3,,
{16}6,6h[8:2],,4,,3,3h[8:3],,{8}1b,1b,1b,,
8-4[8:1],1,2,3-7[8:1],4,5,6,,
{16}4,5,,5,4,,36,,{8}7-3[8:1],1,1,,
1-5[8:1],8,7,6-2[8:1],5,4,3,,
{16}6,6h[8:2],,4,,3,3h[8:3],,{8}1,7,5,,
8-4[8:1]/4,3,2,1,1-5[8:1]/5,6,7,8,
{16}1,1h[8:2],,2,,8,8h[8:1],,{8}7-3[8:1],1,1,,
2h[8:3]/4,5,6,7,38,1,25,3,6h[8:3]/4,5,7,8,15,2,36,4,
5h[8:3]/7,6,4,3,28,1,47,6,5/3h[8:3],4,2,1,48,7,36,5,
{8}24,3,57,6,{16}1h[8:1]/8h[8:1],,,1h[8:1]/2h[8:1],,,23,,
{8}46,5,35,4,{16}7h[8:1]/6h[8:1],,,5h[8:1]/6h[8:1],,,45,,
{8}13,2,68,7,{16}4h[8:1]/5h[8:1],,,4h[8:1]/3h[8:1],,,23,,
{8}17,8,28,1,{16}6h[8:1]/7h[8:1],,,7h[8:1]/8h[8:1],,,18,,
24,,,45,,,57,,18,,,67,,,23,,
1,8,3,6,2,7,4,5,3,7,2,5,1,6,4,8,
{8}1>8[8:4],,,,,1b,1b,,
{16}
2,1,3,8,4,7,5,6,4,5,3,6,2,7,1,8,
1,1,7,8,6,1,5,2,5,4,6,3,7,2,8,1,
6,5,7,4,8,3,1,2,8,1,7,2,6,3,5,4,
5,5,3,4,2,5,1,6,1,8,2,7,3,6,4,5,
2,8,3,7,4,6,4,5,3,5,2,6,1,7,1,8,
2,2,1,3,8,4,7,5,6,8,5,1,4,2,5,3,
7,1,6,2,5,3,5,4,6,4,7,3,8,2,8,1,
7,7,8,6,1,5,2,6,3-7[8:1],,1b,,1b,,,,
6^1[8:1]/5,,4,,56,5,,3^8[8:1],,5,,34,4h[8:1],,,,
2,,2,,2,3,4,5,6b/7b,,4b/5b,,2b/3b,,,,
3-8[8:1]/4,,5,,43,4,,6-1[8:1],,4,,56,5h[8:1],,,,
7,,7,,7,6,5,4,2b/3b,,1b/4b,,5b/8b,,6b/7b,,
18,,1,,18,1h[8:1],,,8,1,,1,1h[8:1]/8,,,,
18,,1,,1^6[8:1],1,1^4[8:1],1,1b-5[8:1],,1b,,1b,,,,
18,,8,,18,8h[8:1],,,1,8,,8,8h[8:1]/1,,,,
18,,8,,8,8,8,8,7-3[8:1],,1b,,1b,,,,
{1}45,,,,E
