&title=ROT FOR CLOUT
&artist=Jamie Paige; Visualeyes; 重音テト
&first=0.07
&des=TEM-4
&wholebpm=172
&clock_count=4
&lv_5=14
&inote_5=(172)
{1},
{4},,,
{16}C,,,,2-4[8:1]/6,,,,52,,,,7-4[6:1],,8,,7,,1,,
3xh[4:1],,E7,,4h[4:1],,E2,,5xh[8:1],,B8,,B4,,,,
1/7^4[6:1],,,,3,,,,2v5[6:1],,1,,
2,,8,,4x/7x,,3/7x,,2x/7,,1/7x,,7/8xw4[6:1]b,,,,
8,,,,2x/6x^4[8:1],,,,3,,,,2-4[8:1],,1,,2,,8,,
6xh[4:1],,E8,,5h[4:1],,E2,,4xh[8:1],,E1,,C,,,,
2^5[6:1]/8,,,,1/2,,,,7p3[6:1],,4,,7,,2,,
1/4x,,1x/5,,6x/1,,1x/7,,8x/1w5[6:1]b,,,,1,,,,
{8}3xh[4:1],,B4,,3h[4:1],,B4,,3h[4:1],,B4,,3h[4:1],,B4,,
3xv1[6:1]/4x-8[6:1],,,,7x,,1-5[16:6]b/2v4[16:6]b,,,,,,
3xh[4:1],,B4,,5h[8:1],,B2/6h[8:1],,4h[8:1],,E8/3h[8:1],,
6x^3[16:3],,C,,2-4[6:1],,B6,,8-6[6:1],,B2,,
1v6[6:1],,8V24[16:9]*V64[16:9],,,,,,,,C,,
3-5[6:1]/5,,6,,7-5[6:1],7,4h[8:1],,
3,B5,4>8v3[16:7],B7,4x,,E6/B5,,
6-4[6:1],,3h[8:1],,2-4[6:1],2,5h[8:1],,6,B3,7,E5,
8x^5[6:1],,E4/A3,,2v4[6:1],,5,,6v8[6:1],6,3,2,
1x-4[6:1],7,1xp6[16:6],,1x,,A3/E4,,
4h[8:1]/5h[8:1],,3h[8:1]/6h[8:1],,4/5,4/5,3/6,
{16}4,5,4h[8:1],,5xh[1:0],,3/6,,4x/5x,,2x-4[8:1]/7x-5[8:1],,,,
2/7,,,,
{24}E5,B4,B3,,,,,,,,,,,,,,,,,,,,,,
E1,B8,B7,,,,,,,,,,,,,,,,,,,,,,
E3,B2,B1,,,,,,,,,,,,,,,,,,,,,,
E7,B6,B5,,,,,,,,,,,,,,,,,,,,,,
{16}3/4,,3/4,,2/5,,2/5,,1/6,,1/6,,7/8-4[8:1]b,,7/8,,
1xh[2:1]/8x,,,,,,,,Ch[2:1],,,,,,,,
4h[8:1],,,,3h[8:1]/5h[4:1],,,,4,,4,,5,,3,,
2xb/6,,3/7xb,,1b-5[8:1]b/6x,,3/8xb,,1b/7x,,,,Cf,,,,
2-6[8:1]/5,,,,2/4^1[8:1],,,,4x/5xh[8:1],,,,7v4[8:1],,8,,
1-5-2[4:1]/7,,,,6h[8:1],,,,7xv2[8:1],,,,3h[8:1]/7,,,,
4-8[8:1]b,,3,,2x/4x,,,,5-1[8:1]b,,6,,7x/5x,,,,
8,,4/7x,,2x/5-1[8:1]b,,3/6x,,5x/7x,,,,
8^5[8:1],,,,2b-6[8:1]/8b,,,,2/4^2-8[32:5],,,,
4x/5xh[8:1],,,,6-4[8:1],,8,,2-4qq5[24:9]/6,,,,6h[8:1],,,,
7xv2[8:1],,,,3h[8:1]/7,,,,4-7[8:1]b,,3,,2x/4x,,,,
5-2[8:1]b,,6,,7x/5x,,,,8,,1x/7,,2/4x-1[8:1]b,,5/7x,,4x/6,,,,
8^3[8:1],,,,7b-3[8:1]/8b,,,,4q8[8:1]/7,,,,2xh[8:1]/4x,,,,
3-5[8:1],,7,,3/6-3V51[3:1],,,,2h[8:1],,,,3x-7[8:1],,,,
3/8h[8:1],,,,6-3[8:1]b,,7,,6x/8x,,,,2-7[8:1]b,,3,,2x/4x,,,,
5,,4x/6,,3/7x-3[8:1]b,,2x/8,,1/7x,,,,2^5[8:1],,,,
2b/6b-3[8:1],,,,4V68[32:5]/6,,,,2xh[8:1]/4x,,,,
3-1[8:1],,8,,3/6p4[3:1],,,,1h[8:1],,,,3x-7[8:1],,,,
3/4h[8:1],,,,5-8[8:1]b,,6,,5x/7x,,,,1-4[8:1]b,,2,,1x/3x,,,,
5,,4x/6,,2-6[8:1]b/8x,,3x/5,,2/7x,,,,8h[8:1],,,,
{24}1b^6[8:1]/7b,2,3,4,,,
{16}1,,4x,,3x-7[8:1]/5x,,2,,1-3[8:1]*-4[8:1]/3,,,,1x-7[8:1]*-6[8:1],,,,
1,,,,4h[8:1],,,,3/5-7[8:1],,2,,3-1[8:1]/5,,,,3x/8x,,,,
7v4[8:1],,8,,1/7,,2,,3x-5[8:1],,6x-4[8:1],,3x,,6x,,1x-5[8:1]b,,,,
1/7,,,,
{24}8b^3[8:1],7,6,5,,,
{16}8,,5x,,4x/6xp2[8:1],,7,,6/8-3[8:1],,,,1x-6[8:1]/8x,,,,
1x/4x,,,,5h[8:1],,,,4/6,,7,,3/5,,2,,6,5,7,,3/4,,2x,,3/4,,5x,,
2x-6[8:1],,7x-3[8:1],,2x-5[8:1],,7x-4[8:1],,2x,,7x,,
3x,,2,,1/4,,7,,2/4,,6,,3x/4,,2/5x,,4x/7,,5/6x,,1x-5[6:1]/8x,,,,,,,,
8w4[6:1]b,,,,,,,,
{8}2xh[1:1]/6xh[2:1],,,,,,,,6V41[16:11],,,,,,,,
2>6[16:11],,,,,,,,8qq4[16:11],,,,,,,,
3^6p1[16:11],,,,,,,,7p4[16:11],,,,,,,,
2^7[16:9]*v4[16:9],,,,,,,,5v3^8[16:11]b,,,,,,,,
{32}7xq1[16:9],6x,5xh[32:22],,,,,,{4},,,
{32}2x/6x,3x/7x,4xq2[16:7]/8xq6[16:7],,,,,,{4},,,
{32}3xh[32:24]/7x,8x,1xs5[16:7],,,,,,{4},,,
{32}2x/6xh[32:24],1x,8xz4[16:7]
,,,,,,{4},,,
{8}3/7,3/7,2/6,2/6,1/5,1/5,4q8[8:1]/8q4[8:1]b,4/8,
4xqq2[16:7]*pp6[16:7]b/8x,,,,,,C,,
{16}3h[8:1]/7h[8:1],,,,4h[8:1],,6,,4h[8:1],,6,,
B3,,5,,2h[8:1]/4h[8:1],,,,3h[8:1],,1,,3h[8:1],,5,,E4,,
6pp3[16:7],,,,,,B2,,,,1^6[16:3],,,,4h[8:1],,,,
3xh[8:1],,2h[8:1],,1h[8:1],,8x-4[15:2]b,,,,
2-6[15:2]b/8,,,,2/8,,7xh[8:1],,,,5/6,,3,4,2,4,3,,5/6,,7x,,
E4h[8:1]/A3h[8:1],,E6h[8:1]/A6h[8:1],,
E3h[8:1]/A2h[8:1],,E7h[8:1]/A7h[8:1],,
B1h[8:1]/A1h[8:1],,B8h[8:1]/A8h[8:1],,
2x,,7x,,3/E7/B6,,3x,,4/E1/B1,,4x,,5/B3/E3,,5x,,6/E5/B4,,6x,,
7x,,1x/8b,,2b/3x,,4x/5b,,
{24}6b/7x,E7,B6,B5f,B4,E4,1x^4[6:1]b,,,,,,
{16}1/8h[8:1],,,,7,,5,,4/6,,2,1,2-4[8:1],,8,,2-6[6:1],,7x,,
2,,5x,,4>6[4:1],,3x,,2xh[8:1]/4x,,,,1x-5[6:1],,7,,1/8x,,7,,
6,,4,5,3x,,2/4,,1^4[15:2],,8xq5[15:2],,1,,8x,,1xv6[15:2]*p5[15:2],,,,
1,,,,3xv8[15:2],,,,3/5,,6,,7x,,1,1,8x-4[6:1],,2x,,8-6[8:1],,1x,,8,,2x,,
3V57-1[4:1],,4,,3x/5xh[8:1],,,,6x-2[6:1],,2,,3x/6,,3,,
4,,5x,5,4,,3/4,,1b/2b,,3b/8b,,1b-5[8:1]b/7b,,2b/6b,,1b/8b,,,,Cf,,,,
{24}2x/5x-1[8:1],3/6,4/7,,,,
{16}8b-4[8:1],,,,2h[8:1]/8V25[16:3],,,,8x,,6,,
7-4[8:1],,7x,,5-2[8:1],,5x,,6x,,6,,1x,1,8,,
2-5[8:1]*-4[8:1]b,,1,,2x,,,,2-5[8:1]b*-4[8:1],,1,,2x,,,,
6,,7x/8,,1x/8,,2x/1,,3x/2^5[8:1],,,,
{24}2/E6,E7,E8,E1,,,4x-8[8:1]/7x,3/6,2/5,,,,
{16}1b-5[8:1],,,,1V73[16:3]/7xh[8:1],,,,1x,,5,,
4^7[8:1],,4x,,3q8[8:1],,3x,,6x,,6,,1x,1,7,,
8^5[8:1]b*p4[8:1],,1,,8x,,,,1^4[8:1]b*q5[8:1],,8,,1x,,,,
6,,5x/7,,1x/3,,2/4x,,1/7x^4[8:1],,,,
{24}7/E4,E3,E2,E1,,,2x/5xv8[8:1],3/6,4/7,,,,
{16}7bv2[8:1],,,,6xh[8:1]/7xV51[16:3],,,,7x,,3,,
2-4[8:1],,2x,,1-5[8:1],,1x,,3x,,3,,6x,6,4,,
7-4[8:1]b*V53[8:1],,1,,7x,,,,7-4[8:1]*V53[8:1]b,,1,,7x,,,,
8,,1/2x,,3/7x,,5x/6,,3/4x^7[8:1],,,,
{24}4/E1,E2,E3,E4,,,4xq8[8:1]/7x,3/6,2/5,,,,
{16}1bq5[8:1],,,,7xh[8:1]/1V37[16:3],,,,1x,,4,,
5-1[8:1],,5x,,6-3[8:1],,6x,,8x,,8,,1x,1,7,,
8-4[8:1]b,,8,,2x-6[8:1],,,,5-1[8:1]b,,5,,3x,,,,
2,,1/8x,,3x/6,,2x/7,,4h[8:1]/5xh[8:1],,,,
{32}E5,B5,C,B1,E1,,,,1xb-5[8:1]b/8xb-4[8:1]b,2x/7x,3x/6x,4x/5x,,,,,
{16}1/8-6[8:1],,,,8,,3x,,2V48[16:3],4,2x,,6V84[16:3],,,,1xh[8:1],,,,
2,,3/4x,,6,5,7x,,8-3[8:1],,4x,,8,,4x,,5v2[8:1],,6x,6,5,,7x,,8,,
{32}1b,2,3,,7b,6,5,,2b,3,4,,8b,,,,,,,,
E5,B4,C,B8,E1,,,,1xbs5[8:1]b/8xbz4[8:1]b,2x/7x,3x/6x,4x/5x,,,,,
{16}1^6[8:1]/8,,,,1,,5x,,3V52[16:3],4,3x,,7V16[16:3],,,,3xh[8:1],,,,
2,,1/5x,,7,8,6x,,1^4[8:1],,5x,,1,,6x,,7-3[8:1],,4x,4,7,,2x,,
1b,,7b,,{32}2b,E3f,,,8b,E8,,1b,E2f,,,7b,E7,,,,
{16}3x,,4x,,5/7,,6,,2/4,,3,,5x/B3,,6/A2,,3x/B6,,4/A7,,
8x/Ch[4:1],,,,1h[4:3],,,,B5h[2:1],,,,,,,,Cf,
E
