&title=Poker Face
&artist=ladygaga
&first=0
&des=gentlemanseisan
&clock_count=4
&lv_5=13
&inote_5=(119)
{1},,
{1},,,,,,,,
{8}4-2[8:1],6,4,5,1-3[8:1],7,1,8,
{8}4-2[8:1],6,4,5,1-5[8:1],8-6[8:1],1,8,
{8}5>2[8:1],7,5,6,1>4[8:1],7,1,8,
{8}5>2[8:1],7,5,6,1-5[8:1],8-4[8:1],1,8,
{8}1b,5,3/4,2,1/6,7,8/2,3,7h[8:1]/4,5,3h[8:1]/8,1,8-5[8:1]/3,,7/8,,
{8}3h[8:2],4,6h[8:2],5,1,2,3-5[8:1]/7,6-2[8:1],3-7[8:1],6-4[8:1],3,6,1h[8:3],
{8}5,4-8[8:1],5,
{8}2b/4b,3,4h[8:1]/7,6,5h[8:3]/2,3,4,6,5/7,5/8,5/1<3[16:3],2/6,7h[8:2]/1-5[8:1],,,
{8}7,8h[8:1]/3,2,1h[8:1]/6,7,1/8,2/1,1/8-2[8:1],7-3[8:1]/8,8-4[8:1],7-5[8:1],8,7,
{8}1w5[8:1],,1,,
{8}2b<6[4:1]/6b,,6>2[4:1],,2V46[8:2],,1,,8h[8:3],,3-5[8:1],5-7[8:1],7V53[4:1],8,
{8}1,8,7h[8:6],3,4>1[16:2],2,4,,2,7h[8:5],1,8,3,8,1-6[8:1],2-5[8:1],1,2,
{8}7>3[4:1],,3<7[4:1],,7V53[8:2],,8,,1h[8:3],,6-4[8:1],4-2[8:1],2V46[4:1],1,
{8}8,1,2h[8:6],6,5<8[16:2],7,5,,6>2[8:1],2<4[8:3],6,,,,,,,,
{8}3b/6h[8:2],8-4[8:1],1,2h[8:3]/8,,1-5[8:1],8,7h[8:2]/1,,5,4/6,3,2>4[8:1]/6,1/8,
{8}2/7p5[8:3],,7/4,,3,2h[8:3],3,,1-4[8:1],8-5[8:1],1,8,1-4[8:1],8-5[8:1],1,8,1,8,
{8}6/3h[8:2],1>4[8:1],8,7h[8:3]/1,,8<5[8:1],1,2h[8:2]/8,,4,5/3,6,2-6[8:1]/7,8/1,
{8}2/7pp4[8:3],,7/4,,3,2h[8:3],3,,1-5[8:1],8-4[8:1],1,8,1-5[8:1],8-4[8:1],1,8,1,8,
{8}2h[8:9]/7b,8,6,1,6,8,4,6,1>4[8:1],1<6[8:1],,,3,2/8,3/7,2/8,3/7h[8:9],
{8}1,3,8,3,1,5,3,8<5[8:1],8>3[8:1],,,5,6/2,7/1<3[8:4],6/2,
{8}7h[8:6]/1b,,,,,,1,,{16}2h[16:1]/8h[16:1],,2h[16:1]/8h[16:1],,
{16}2h[16:1]/8h[16:1],,7h[16:1]/1h[16:1],,2,8,3,7,4,6,5,7,
{16}1,8,1,8,1,8,2,7,3,4,3,4,2,5,2,5,1,8,1,8,1,8,2,7,5,6,4,7,3,4,1,6,
{8}7h[8:1]/2b-4[8:1],1,8-2[8:1],7,6-8[8:1],5,4-6[8:1],3,
{8}2-4[8:1],1,8-2[8:1],7,6-8[8:1],5,4-1[8:1],4,
{8}6-3[8:1],6,8-5[8:1],8,2-7[8:1],2,4-1[8:1],4,6-3[8:1],6,8-5[8:1],8,2-7[8:1],2,
{8}4,4,2b/6b,6,8-4[8:1],7-5[8:1],8,7,
{8}4-2[8:1],5-1[8:1],4,5,2-6[8:1],1-7[8:1],2,1,5-2[8:1],6-1[8:1],5,6,
{8}3-6[8:1],2-7[8:1],3,2,4>8[8:1],8<2[8:3],4,,,,,,1-4[16:1]/8-5[16:1],,
{8}1b/8b,,,,,,,,,,,,,,4>1[8:6]/5<8[8:6],,4/5,,,,,,,,
{8}1,1h[8:2],8,8h[8:2],1,1h[8:2],8,8,
{8}3b/6b,7/8-4[8:1],1/2,3/8,,2/1-5[8:1],8/7,6/1,,4/6,3/5<8[8:1],2,5/1>4[8:1],2,
{8}1/7p4[8:2],,7/4>6[16:6],,1,1h[8:3],,,
{8}8-5[8:1],1-4[8:1],8,1,8-5[8:1],1-4[8:1],8,1,8,1,
{8}3b/6b,7/8-3[8:1],1/2,3/8,,2/1-6[8:1],8/7,6/1,,4/6,3/5<8[8:1],2,5/1>4[8:1],2,
{8}1/7pp4[8:2],,7/4>6[16:6],,1,1h[8:3],,,
{8}8-5[8:1],1-4[8:1],8,1,7-4[8:1],2-5[8:1],7,2,8,1,
{8}3b/6b,7/8<3[8:1],1/2,3/8,,2/1>6[8:1],8/7,6/1,,4/7,2/5<8[8:1],3,5/1>4[8:1],2,
{8}1/7pp5[8:2],,7/5>6[16:6],,2,1h[8:3],,,
{8}7-2[8:1],3-6[8:1],7,3,2-7[8:1],6-3[8:1],2,6,7,3,
{8}8h[8:9]/1b,4,6,1,6,7,4,2,4-1[8:1],4-7[8:1],4,4,,1,1,1,2/8h[8:7],
{8}4,6,1,6,7,4,2,1-4[8:1],8-5[8:1],1-6[8:1],8-3[8:1],1-4[8:1],8-5[8:1],1,8,
{8}1h[8:9],5,3,8,3,2,5,7,5-8[8:1],5-2[8:1],5,5,,6/2,7/1,6/2,7/1h[8:7],
{8}5,3,8,3,2,5,8,6-1[8:1],6-3[8:1],6,6,,7/3,8<2[8:14]/2>8[8:14],7/3,2/8,
