&title=Sun Bath
&artist=负二价- (feat. 诗岸)
&first=0
&des=re
&lv_5=11+
&inote_5=(120)
{1},
{4}
4h[4:1],,,
5h[4:1],,,
5h[4:1],3,4q5[4:2],
,,,
5h[4:1],,,
4h[4:1],,,
4h[4:1],5,6s2[4:3],
,,,
{12}
3h[12:3],,,4h[12:2],,3,4h[12:2],,5,
4h[12:6],,,2h[12:5],,,,,3,
2-8[8:1],,,4-2[8:1],,,6V82[8:3]*<6[8:6],,,
,,,,,,,,,
7h[12:3],,,6h[12:2],,7,6h[12:2],,5,
6h[12:3],,,8h[12:3],,,7-1[8:1],,,
5-7[8:1],,,3V57[8:3]*>3[8:6],,,,,,
,,,,,,5p4[4:3],,,
,,,,,,,,6,
6h[16:20],,,,,,5,,7,
7h[16:11],,,,,,{16},5h[16:6],,,
8h[16:7],,,,6h[16:7],,,,1h[16:40],,,,
7h[16:16],,,,,,,,{12},,,
,,,,,,5,,3,
3h[12:12],,,,,,,,,
{16}
,,,,1,,4,,,3/5,,,
2/6,,,7,,,8/3,,,2,,,
1/6h[8:1],,8,,7,,5/2h[8:1],,4,,3,,
3-1[8:1],,,3,,,7-5[8:1],,,7,,,
1h[8:1],,3,,2,,6h[8:1],,5,,7,,
4v2[4:1],,,4,,,8v6[4:1],,,8,,,
3-8[4:1],,,3,,,7-5[8:1],,,7,,,
2h[8:1],,6h[8:1],,8h[8:1],,7h[8:1],,3h[8:1],,1h[8:6],,
8h[8:5],,,,,,,,,,,,
3>8[8:3],,,,,,8<4[16:9],,,,,,
5h[16:12],,,,,,,,,,,,
4>1[8:3],,,,,,8<4[16:9],,,,,,
8h[16:7],,,,,,,,,,,,
4b<3[8:8]/5h[8:10],,,,,,,,,,,,
,,,,,,,,,,,,
4>6[8:8]/3h[8:10],,,,,,,,,,,,
,,,,,,,,,,,,
4<8[8:8]/6h[8:10],,,,,,,,,,,,
,,,,,,,,,,,,
4s8[8:9]/2,,,,,,,,,5-1[16:9],,,
,,,,,,,,,,,,
{12}
2h[12:3]/7,,,6h[12:2],,3,5h[12:2]/2,,3,
7h[12:6]/4,,,5h[12:5],,,,,1,
8-6[8:1]/4h[12:3],,,8-2[8:1],,,6v3[8:3]*pp4[8:5],,,
,,,,,,,,,
6h[12:3]/3,,,4h[12:2],,7,3h[12:2]/6,,7,
5h[12:6]/8,,,1h[12:5],,,,,8,
2-8[8:1]/7h[12:3],,,2-4[8:1],,,3v8[8:3]*>4[8:6],,,
,,,,,,,,,
3h[4:1],,,4,,4,3,,,
5h[4:1]/6,,,4,,,5,,,
{4}
5h[4:1]/3,2,3qq3[4:2]/7>3[4:2],
,,,
{12}
5h[4:1]/6,,,6,,5,4,,,
4h[4:1]/5,,,3,,,3,,,
{4}
4/3h[4:1],5,2s6[4:3]/6>6[4:6],
,,,
,,6>1[8:8],,
,,1qq1[4:3]*<1[4:6],,
{8}
,,,,,,,,
1<5[8:6],,,,,,5-2[8:3]*v8[8:3],,
,,,,3qq8[8:12],,,,
,,,,7pp4[8:12],,,,
,,,,5qq2[8:12],,,,
,,,,1pp7[8:12],,,,
,,,,2>8[8:8],,,,
,,,,8>3[8:4]*pp3[8:8],,,,
,,,,3>5[8:8],,,,
,,,,5>2[8:4]*pp2[8:8],,,,
,,,,2>8[8:8],,,,
,,,,8<4[8:6],,,,,,4-8[4:2],,,,{16},4pp5[16:19],,,
{1}4qq3[16:16],
{8}
,,,,2b,2-6[4:1],2,1,
1-5[4:1],1,8,8-4[4:1],8,7,7v8[12:2],7,
{16}
,6b,,5-1[4:1],,5,,7,,6-2[4:1],,6,,8,,7-3[4:1],
,7,,1,,8-4[4:1],,8,,1,,2-6[4:1],,3,,7,
,8-4[4:1],,1,,5,,6-2[4:1],,7,,3,,4v5[12:2],,,
,,,,3,,2v5[4:1],,1,,5,,4v7[4:1],,3,,
7,,6v1[4:1],,5,,1v4[4:1]*>8[8:15],,,,,,,,,,
,,,,,,,,,,,,,,,,
,,,,8>3[8:6],,,,,,,,,,,,
3q6[8:15]*p7[8:8],,,,,,,,,,,,,,,,
,,,,,,,,,,,,,,6qq3[8:9],,
,,,,,,,,,,,,,,,,
3v6[8:3]*-8[8:3],,,,,,,,,,,,1h[4:1]/8,,7qq5[4:1],,
6,,6h[8:3],,,,,,7h[4:1],,6q4[4:1],,5,,5h[8:3],,
,,,,3h[4:1],,2pp4[4:1],,1<5[16:5],,,,,,,,
{32},,4pp5[16:5],,,,,,,2h[32:11],,,,,,,,,,,,,,,3V16[4:1]/2,,,,4,,,,
{16}
5h[8:3],,,,,,,,8V61[4:1]/7,,1,,2h[8:3],,,,
,,,,1-6[8:1]/3,,8,,7-4[8:1],,,,5-2[8:1],,,,
3-8[8:1],,,,1bV73[4:4]*s5[4:4],,,,,,,,,,,,
E
