&title=ダダダダダル
&artist=雨良 Amala
&first=0.085
&des=bpm124.dddddr
&lv_5=13+
&inote_5=(124)
{1},
{8},E5/B4/B5/A4/A5,,
{16}Cf/7bhx[2:1],,,,
{32},,,,,,,,
5-8[8:1],,,,,,,,
4,,,,,,,,
{16}5-8[8:1],,,,
{32}4,,,,,,,,
5-8[8:1],,,,,,,,
E5/B4/B5/A4/A5,,,,,,,,
{16}2h[2:1]/Cf,,,,
{32},,,,,,,,
4-1[8:1],,,,,,,,
4,,,,,,,,
{16}3,4,,6,
5,,27,,
{24}1,2x,3x,4x,5x,6x,
{16}7x-3[8:1],,,,
{16}3/7,,,,
2/4,,2,,
2/4,,2,,
2/5v7[6:1],,,,
{16}4,,,,
5,,5,,
57,,5,,
5/8v2[6:1],,,,
{16}4,,4,,
4-6-2[16:3],,,,
8,,8,,
8-3-7[16:3],,,,
{16}1,,1,,
1,,1,,
{32}1-5-1[16:4]/A6,D6,A5,D5,A4,,,,
{16},,,,
{16}4bx,,,,
4/7,,7,,
46,,6,,
4v1[8:1]/5,,,,
{16}2,,2,,
3/1x,,3,,
1v6[8:1]/4,,,,
,,,,
{16}5/7-3[16:2],,8h[4:1]/3,,
,,,,
4/2-6[16:2],,1h[4:1]/6,,
,,,,
{16}7s3s7[16:7]/5,,8h[4:1]/3,,
,,,,
,,,,
E5/B4/B5,,,,
{16}4bhx[16:3]/2bhx[16:3],,,,
3h[16:3]/1h[16:3],,,,
27,,34,,
15,,2,2,
{16}4,,7,7,
5,,45,,
27,,56,,
4/8,,7,7,
{16}5,,4,,
35,,2,4,
2,4,2h[8:1],,
1-3[8:1],,8-4[8:1],,
{16}1x,,8x,,
1x-3[8:1],,7x-5[8:1],,
8x-4[8:1],,7x,,
8x,,7,,
{16}6,,E5/B5/B4,,
2bx,2,4,,
54,,75,,
8,8,6,,
{16}65,,35,,
4-6<7[8:1]*-2[8:1],4,4,,
4xv7[8:1]*qq2[8:1],,,,
,,,,
{16}4h[1:1],,,,
E5,,,,
6b,,6b,,
6b,,6b,,
{16}6,57,,3,
42,,72,,
{24}8,7x,6x,5x,4x,3x,
{16}B5/B4/E5f/2x-6[12:1],,,,
{16}1b/2b,,,,
4,5,2,1,
3/8,3/8,,,
4,5,8,7,
{16}1/6,1b/6b,,,
4/5,2bx/7bx,,,
1/8,2b/7b,,,
4,6,3,4,
{16}2,1/3x,,,
8,2,7,8,
6,5/7x,,,
4,6,3,4,
{16}1-5[12:1],1,,7x,7x-3[12:1],7x,,5x,
5x-1[12:1],5x,,,
{48}B5f/E5/E6/3b,,,,,,,,,,,,
{16}3hx[16:3]/7hx[16:3],,,,
5,4,7,8,
6/1,61,,,
5,4,1,2,
{16}8/3,8b/3b,,,
5/4,3b/6b,,,
8/1,3bx/6bx,,,
5,3,6,5,
{16}7,8/6x,,,
1,7,2,1,
3,4/2x,,,
5,3,6,5,
{16}8-3-1-5[16:6],8x,,,
5,5x,,,
4,4x,,,
3bxw7[8:1],,3bx,,
{16}A3f/D3/D4,,,,
1/8,,6,,
57,,3,,
2>5b[8:1]/4,,8,,
{16}6v1[8:1]/2,,8,,
2>5[8:1]/6,,4,,
6v8[8:1]/2pp4[8:1],,8,,
2b/6b,,,,
{16}2bh[4:1]/6b,,,,
{48}E3,E4,A4,,,,6hx[8:1],,,,,,
{48}E7,E6,A5,,,,3hx[8:1],,,,,,
{48}E3,E4,A4,,,,6x,,,,,,
{16}4x,4x,4x,4x,
4xp5-8b[32:8],,5h[4:1],,
,,,,
E5f/B4/B5,,,,
{16}2hx[16:3]/7hx[16:3],,,,
3-1[12:1]/5,5,1-5[8:1],,
3/4,,6,,
8-6b[12:1],8,6v3b[8:1],,
{16}48,,2,,
8bq6[6:1]*-3-6[6:1],,,,
,,,,
7,57,,2,
{16}42,,18,,
4/6-8[12:1],4,8-4-2[16:3],,
56,,A1f/B1/E2,,
,,1,,
{16}1b/8b,,67,,
54,,23,,
{32}1b,8x,7x,6x,
5x,4x,3x,2x,1bx,8x,7x,6x,
5x,4x,3x,2x,
{16}1bx/8bx,,,,
B4/B5/E5f/A4/A5,,,,
{16}3b>6[4:1],,,,
6>3[4:1],,,,
3>6[4:1],,,,
6>3[4:1],,,,
{16}3>6[4:1],,,,
6>3[4:1],,,,
3-7[8:1],,,,
B4/B5/E5,,,,
{16}5<2[4:1],,,,
2>5[4:1],,,,
5<2[4:1],,,,
2>5[4:1],,,,
{16}5<2[4:1],,,,
2>5[4:1],,,,
5-1[8:1],,,,
B4/B5/E5f,,,,
{16}3b>6[4:1],,,,
6>3[4:1],,C,,
3x>6[4:1],,,,
6>3[4:1],,C,,
{16}3x>6[4:1],,,,
6>3[4:1],,C,,
3x,,,,
5,,6,,
{16}7<2b[4:1],,C,,
2x<7b[4:1],,C,,
7x<2b[4:1],,C,,
2x<7b[4:1],,C,,
{16}7bx,,C,,
1x,,
3,,
5/6,,1s5[6:1]/8z4[6:1],,
34,,,,
{16}E5f,,,,
,,,,
,,,,
,,,,
{16}2h[4:11],,,,
{32}E3,E4,E5,,,,,,
,,,,,,,,
{32}3h[16:4],,,,,,,,
{16},,,,
{32}E3,E4,E5,,,,,,
,,,,,,,,
{32}4h[4:1],,,,,,,,
{16},,,,
{32}E3,E4,E5,,,,,,
,,,,,,,,
{32}5h[4:1],,,,,,,,
{16}2>4[6:1],,,,
1,,,,
8>2[6:1],,,,
7,,,,
{16}6<8[6:1],,,,
5,,,,
4<6[6:1],,,,
3,,,,
{16}2-5-2[32:7]*-4-2[32:7],,,,
,,,,
8-5-8[32:7]*-6-8[32:7],,,,
,,,,
{16}4qq3b[16:6],,,,
8qq5[16:8],,,,
,,,,
,,,,
{16}3hx[16:2],,,,
3hx[16:2],,,,
3x,,3x,,
3x,,3x,,
{16}3,42,,6,
57,,27,,
{32}1,2,3,4,5,6,7,8,
{16}B4/B5/E5/1x-5[12:1],,,,
{16}5b/1b,,,,
4,4,4,4,
35,35,,,
1bx/7bx,1bx/7bx,1bx/7bx,1bx/7bx,
{16}6bxq2[8:1]/2bxq6[8:1],6bx/2bx,,,
6x>2[8:1]/2x<6[8:1],,,,
6/2,,,,
1,4,3,8,
{16}5,4b/6b,,,
8,5,6,1,
4,5b/3b,,,
1,4,3,8,
{16}5-1[12:1],5,,7x,7x-3[12:1],7x,,1x,
1x-5[12:1],1x,,,
{48}E1/E2/B1f/3b,,,,,,,,,,,,
{16}3hx[16:3]/7hx[16:3],,,,
1,8,3,4,
2/5,25,,,
1,8,5,6,
{16}4/7,4b/7b,,,
1/2,8b/3b,,,
5/6,8b/3b,,,
2,5,4,1,
{16}6,5bx/7b,,,
7,4,5,8,
3,4bx/2b,,,
2,5,4,1,
{16}6-3b[16:2],6x,,,
8-4-6-2[16:5],8x,,,
2,2x,,,
1bxw5[8:1],,1bx,,
{16}A1f/D1/D2,,,,
8/1,,3,,
42,,6,,
7<4b[8:1]/5,,1,,
{16}3v8[8:1]/7,,1,,
7<4[8:1]/3,,5,,
3v1[8:1]/7qq5[8:1],,1,,
7b/3b,,,,
{16}7bh[4:1]/3b,,,,
{48}E8,B7,B6,E6,,,2hx[8:1],,,,,,
{48}E2,B2,B3,E4,,,7hx[8:1],,,,,,
{48}E8,B7,B6,E6,,,2x,,,,,,
{16}8,8,8,8,
8-5q4b[32:8],,5h[4:1],,
,,,,
E5f/B5/B4,,,,
{16}2hx[16:3]/7hx[16:3],,,,
6-8[12:1]/4,4,8-4[8:1],,
6/5,,3,,
1-3b[12:1],1,3v6b[8:1],,
{16}51,,7,,
1bv6[6:1]*q6[6:1],,,,
,,,,
7,5/8b,,3,
{16}5/2b,,18,,
5/3-1[12:1],5,1-5-7[16:3],,
4/3b,,A8f/B8/E8,,
,,8,,
{16}2b/8b,,24,,
64,,68,,
{32}8b/2b,1x,2x,3x,
4x,5x,6x,7x,8x/4b,1x,2x,3x,
4x,5x,6x,7x,
{32}8x/4bh[1:0],5h[1:0],6h[1:0],7h[1:0],8h[1:0],1h[1:0],2h[1:0],3h[1:0],
{16}4h[1:0],,6h[1:0],,
8h[1:0],,3h[1:0],,
E5/B4/B5/2x-6-2[12:2],,,,
{48}2b/Cf,,,,
,,,,
,,,,
,,,,
E
