&title=Killerbeast
&artist=Camellia
&first=0.06
&lv_5=14+
&des_5=NekkiOwO
&inote_5=
(110){4},,,,{1}4>5[8:11],
{4},,,5<4[8:13],
{1}4,
{4},,,2V46V82[8:13],
{1}6,
{4},,,7V53V17[2:3],
{1}3,
{8},C,{16},,,Ch[16:5],,,,,{4}5h[8:1],
(220){2}5b/4b,3,
2h[4:3],{4}6,6,
{2}6/1,8,
7,{4}7,6/1-5[8:1],
{2}1b/5b>1[4:3],6,
7,{4}8,8/2<6[2:1],
,6,4,7,
7-4[8:1],3/7,3-8[8:1],3,
5b/4b,{8}3x,4,3,4/5,6x,5,
6,5/4,3x,2,1/6,7,8/1x,2,
3/8,7,6/5x,4,3-8[8:1],5,{4}3x,
{8}5,5-8[8:1],3x,5-2[8:1],,5,,8,
{4}7b/1-5[8:1],1/6-2[8:1],6/3-7[8:1],3/8-4[8:1],
8b/2-6[8:1],2/7-3[8:1],7/5-1[8:1],5,
{8}5b,4,6,3,7b,2,8,1,
{16}8b,1,8,1,8b,1,8,1,{2}2xh[4:1]/7bxh[4:1],
{32}1b-5[8:1],2,3,4,{8}5,,,2,5,3,7,
{16}4,6,4,6,4,6,4,6,{8}3v8[8:1],5,{4}3,
{16}5,6,{8}7,{16}2,1,2,1,2,1,3,8,3,8,3,8,
4,7,4,7,4,7,4,7,{8}3V51[16:3],5h[8:1],{4}3,
5<8[32:3],{32}1x,2,3,4,,,,,{8}6h[8:1],4h[8:1],6xh[8:1],3,
{16}7,5,7,5,7x,5,7,5,{8}6V48[4:1],4,{4}4x,
{8},,7h,4h,1h,5h,3h,8h,
2h,6h,4h,8h,6h/2h,7h/3h,8h/4h,5h/1h,
{32}8b-4[8:1],7,6,5,{8}4,,,3x,3,5x,5,
{16}1x,6,1,6,2x,5,2,5,{8}1s5[8:1],1,{4}5b,
6/2,{16}3x,4,3,4,2,5,2,5,1x,6,1,6,
8,7,8,7,{12}8x,1,2,3/4,5,6,7x/8w4[0.8182##0.1364],,,,,,,,,{4}8,
2b/6b,
{16}5b/4b,6,7,8,2b/1b,3,4,5,6,7,8,1,{4}3b/2b,
{16}4b,4,{8}5,{16}2b,2,{8}6,{16}3b,3,{8}7,{16}2b,2,{8}8,
1,1,{4}1>5[4:1],1/5<1[4:1],1,
{8}5,{16}6,5,{8}6,{16}3,4,{8}3,{16}6,5,{8}7,{16}3,4,
{8}2,{16}7,5,{8}6,{16}2,4,{8}3,{16}7,6,{8}8,{16}2,3,
{8}1x,8,7,6,5x,4,3,2,
{16}1x,8,7,6,5,4,3,2,{24}1x,8,7,6,5,4,{32}3x,2,1,8,7,6,5,4,
{2}3/7bxw3[8:1],{8}E8,B5,E2,B4,
E7,E3,B5,B1,{6}B4/C,E3/B2,E1/B1/6xV48-3[24:7],
{4},,{16}1x,2,3,4,8,7,6,5,
2x,3,4,5,7,6,5,4,{2}2qq5[4:1],
Ch[4:1],{16}4x,3,2,1,5,6,7,8,
{8}3x,5,7,2,{6}5x-8[16:1],5-2[12:1],5,
{24},,,{8}6,{16}2x,7,2,7,2,7,3,6,3x,6,3,6,
4,5,4,5,4xz8b[4:1],5s1[16:3],{4},,{16},,{32}8bv3[8:1]*v5[8:1],
7/1,6/2,5/3,,,,,,,,,,,,,{16}4x,3,2,1,4,5,(200)6,7,
1x,2,3,4,8,7,6,5,{6}B1,B7/B6,B4,
(205){2}Ch[2:1],{16}6x,7,8,1,(200)4,3,2,1,
7x,6,5,4,(186)2,3,4,5,(190){6}7x/6x,7x/6x,7x/6x,
(188){8}1b/8b,{16}2,1,{8}3,{16}4,3,{8}5,{16}8,7,{8}1,{16}6,5,
(175){8}7,{16}4,5,{8}3/5,{16}6,3,{8}6/3,{16}4,6,{8}6/2,{16}5,1,
(162){8}1h[8:3]/4h,5h,6h,7h,(161)1/8h,1/2h,1/3h,1/4h,
(160){16}1,5,2,6,3V58V62[16:5],7,4,8h[16:5],{2}3,
{32}2b-6[8:1]/1b-5[8:1],8/3,7/4,6/5,,,,,,,,,,,,,{16}3,4,3,4,2,5,2,5,
1,6,1,6,8>3[8:1],7,8,7h[16:5],,,,B3,,,{8}C,
{16}8-4[8:1],7,{8}6-1[8:1],8,6,{12}3,3,3,4,4,4,
5,5,5,6-1-4-7[8:3],6,6,{16}2h[8:1],,,2h[8:1],,,{8}2h[8:3],
,,{4}C,{16}6h[16:1],5h[16:1],6h[16:1],5h[16:1],7h[16:1],4h[16:1],7h[16:1],4h[16:1],
8h[16:1],3h[16:1],8h[16:1],3h[16:1],1<6[8:1],2,1,2,1,,,B6/2>5[8:1],,,1/C,2-6[8:1],
,,,,{4}B3/B4,{8}7/2>5[8:1],7,{4}C,
{8}3/1<6[8:1],3,{4}C,{8}B3/B4/E4,B6/B7/E7,B1/B2/E2,{16}B6,B5,
{2}B4f/2bV46[8:1]*v5[8:1],{16}7h,5,7h[64:1],5,7h[32:1],3,7h[64:3],3,
7h[16:1],1,7h[64:5],1,7h[32:3],3,7h[16:1],3,7-4[16:1],,,7-2[16:1],,,{8}7,
{16}5-1[8:1],6,{8}7-4[8:1],5,7,{16}2-5[8:1],3,{8}4,{16}2/6v1[8:1],7,{8}8,
{16}6/4-7[8:1],3,{8}2,{16}4/8-3[8:1],7,{8}6,{16}8/4h[16:3],,,5h[16:3],,,{8}6h[8:3],
,,{4}C,{16}2,8,2h[64:1],8,2h[32:1],6,2h[64:3],6,
2h[16:1],4,2h[64:5],4,2h[32:3],6,2h[16:1],6,2v5[16:1],,,2-7[16:1],,,{8}2,
{16}4-8[8:1],3,{8}2-5[8:1],4,2,{12}6,6,6,5,5,5,
{2}4xh[#0.875],(320){6},8-4[0.25##0.1818],4,
(220){4}8bw4[8:1],8b,{8}1,6,4,8,
{16}3,5,3,5,3,5,3,5,{8}2qq3[4:1],7h[8:3],{4}2b,
{8},,2/6,2/6,{16}8,1,8,1,8,1,8,1,
7,2,7,2,7,2,7,2,{8}6/4-8[8:1],5,{4}4,
5-1[8:1],{32}1b,2,3,4,{8}5h[4:1],8,6,4,2,
{16}6,5,6,5,7,4,7,4,{8}1<6[8:1],4>1[8:1],1-5[8:1],4,
,,4/7b,6,5/3,4,3b/7,2,
{16}8/6h[8:1],,,2/6h[8:1],,,{8}4/6h[8:1],,4h,4h,4h,
{4}4-8[8:1],{32}8b,{96}7,Cf,,{32}6,5,{8}4h[8:1],,,6,6,
{16}1,7,1,7,1,7,1,7,{8}2q3[4:1],8h[4:1],{4}2x,
6b,{12}6/2,7,8,1/5,2,3,4/8,5,6,
7/3,8,1,2/6,3,4,5/1,6,7,4h[32:15]/8h[32:15],,,,,,3/7,
2/6,1/5,{4}4/8-3[8:1]*-4[8:1],8b,
2h[16:3],{16}8,1,8,1,8,1,8,1,{4}8<5[8:1],
4b/8b>3[8:1],4b/8b-4[8:1],8bw4[8:1],8b,
{24}1/8-4[8:1],2,3,4,,,{4}1/8,{24}8/1s5[8:1],7,6,5,{96},,,,,,,,{32}1/8,,,,,,,E1,
B8/B1,B7/B2/B3/B6/Cf,{16}B5/B4/E5,,,,,,,,,,,,,,,{4}7b/B3/B4/E4f,
{8}1/6,2,3/4,5,{4}7h[4:1]/2v5[8:1],
{32}2b,Cf,,,,,,,{8}8,7,6/4,6,5/2,5,
4/7,4,3/5,3,2/8,2,{4}5-8-6-1[2:1]/1-4-2-5[2:1],
{1}1b/5b,
{8}2b/Cf,,,1,1,2/8,{4}3/7V51[4:1],
7b/3-7[8:1],3b,{8}5,4/2,3,2/6,
1,8/3h[4:1],{4}7p3[4:1],3q7[4:1],1,
8<5[16:3],{16}8,1,2,3,{4}4w8[8:1],{32}4b,Cf,,,,,,,{8}2-6[12:1],
2,3-7[8:1],3,4-8[8:1],4,{4}5w1[8:1],
5b,6xh[2:1],1,{8}8-4[12:1],8,
7-3[12:1],7,6-2[12:1],6,5-1[12:1],5,{4}4w8[8:1],
4bx,6x/2x-7[8:1],2bx/6x-2[8:1],6x/8x-3[8:1],
8bx/4x-8[8:1],4x/2x-6[8:1],2bx/7x-2[8:1],3x/7x,
{12}3h[12:1],4h[12:1],2h[12:1],6h[12:1],5h[12:1],7h[12:1],2h[12:1],1h[12:1],3h[12:1],7h[12:1],8h[12:1],6h[12:1],
{4}2>5[8:1],2/8<5[8:1],8/1w5[8:1],1,
{16}2x,4,{8}2,{16}7x,5,{8}7,{16}1x,2,3,4,{8}5/6x,7,
{16}6x,3,{8}6,{16}4x,7,{8}4,{16}5x/4x,6,7,8,{8}1/3x,4,
{16}2x,4,{8}2,{16}1x,8,{8}1,{16}2x/8x,3,4,5,{8}6/7x,3,
{16}4v1[8:1],5,6,7,{4}8/4b,{16}8>4[16:3],7,6,5,{4}4/8b,
{16}6x,5,{8}7,{16}3x,4,{8}2,{16}5x/4x,6,7,8,{8}1/2x,4,
{16}3x,4,{8}2,{16}6x,5,{8}7,{16}1x/8x,2,3,4,{8}5/6x,7,
{16}8x,6,{8}7,{16}1x,3,{8}2,{16}1x/2x,8,7,6,{8}4z8[8:1]/5s1[8:1],3/6,
{4}4x/5x,2qq5[8:3]/7-4[8:1],2x/7x,7,
{8}8>2[8:1],4,8<6[8:1],4,8-2[8:1],4,8-6[8:1],4,
8-3[8:1],4,8-5[8:1],4,8-4[8:1],4,{4}8,
{16}3x-7b[8:1],2,1,8,{32}7/3b,Cf,,,,,,,{16}6x-2b[8:1],5,4,3,{32}2/6b,Cf,,,,,,,{16}1x-5b[8:1],
8,7,6,{32}5/1b,Cf,,,,,,,{16}4x-8b[8:1],3,2,1,{32}8/4b,Cf,,,,,,,{16}1x,
5,1,5,1,5,1,5,1x,5,1,5,1,5,1,5,
1x,2,3,4/6,7x,8,1/5,4,3x,2/1,8,7,{32}6v1[8:1]/2xv5[8:1],3,4,5,6,7,8,1,
B6/B2`2bqq5<1[4:27]`6bqq1>5b[4:27],Cf,{16}B5/B1,{1},,,,,,,{4},,{8},{4}B7/B6/B3/B2/Ch[4:5],
E
