&title=SEPIA
&artist=shiki
&first=0
&des=baiqieji
&lv_5=12
&inote_1=
&inote_5=(142)
{8}
,,,,,,,,
{16}
4,5,
3h[4:4],,,,,,,,,,,,7,,,,
5h[4:4],,,,,,,,,,3,,,,2,,
1h[4:1],,,,8-4[4:2],,,,,,,,,,,,
2,,,,,,,,47,,,,,,5,4,
6h[4:4],,,,,,,,,,,,2,,,,
4h[4:4],,,,,,,,,,6,,,,7,,
8w4[4:9],,,,,,,,,,,,,,,,,,,,,,,,,,,,,,,,
,,,,,,,,,,,,,,1,2,
34,,5,,47,,6,5,,3,4,,17,,,,
28,,3,,52,,3,4,,6,5,,82,,,,
71,,6,,47,,6,5,,3,4,,17,,2,4,
3,5,4,6,5,,7,4,,2,5,,17,,8,7,
46,,35,,24,,2,1,,7,8,,16,,,,
42,,53,,47,,7,8,,2,1,,83,,,,
57,,46,,52,,2,1,,7,8,,16,,1,8,
2,1,3,8,4,7,5,6,3,4,,4,3,,7,6,
35,,2,,17,,7,5,,2,4,,38,,6,,
74,,3,,82,,2,4,,7,5,,61,,3,,
25,,6,,17,,7,5,,2,4,,38,,8,1,
7,8,6,1,5,2,4,3,6,5,7,4,6,,2,3,
46,,3,5,3,,7,5,,3,4,,26,,7,,
64,,7,5,6,,2,4,,6,5,,73,,8,,
35,,2,4,3,,7,5,,3,4,,26,,2,1,
3,8,4,7,5,6,3,4,2,5,1,6,8,7,1,8,
(138)
{4}
1z5[4:13]*V36[4:13]
,,,,,,,,,,,,,,,{16},,3,4,
3,,,,,,,,,,,,7,,,,6,,,,,,,,,,3,,,,2,,(142)2,,,,8-4[4:2],,,,,,,,,,,,
1h[16:3],,,2h[16:3],,,3h[16:3],,,4h[16:3],,,5,,46,,
3h[8:1],,,2h[8:1]/4h[8:1],,,2h[8:1]/4h[8:1],,,2h[8:1]/4h[8:1],,,24,,5,,
3h[8:1],,,2h[8:1]/4h[8:1],,,2h[8:1]/4h[8:1],,,2h[8:1]/4h[8:1],,,24,,6,,
6h[8:1],,,7h[8:1]/5h[8:1],,,7h[8:1]/5h[8:1],,,7h[8:1]/5h[8:1],,,75,,4,,
6h[8:1],,,7h[8:1]/5h[8:1],,,7h[8:1]/5h[8:1],,,7h[8:1]/5h[8:1],,,75,,3,,
2h[8:1],,4,3h[8:1],,5,4h[8:1],,6,5h[8:1],,7,6h[8:1],,8,,
7h[8:1],,5,6h[8:1],,4,5h[8:1],,3,4h[8:1],,2,3h[8:1],,1,,
2h[8:1],,4,3h[8:1],,5,4h[8:1],,6,5h[8:1],,7,6h[8:1],,8,,
7b,,7b-4[8:1],,,,2b-6[8:1]/7b,,,,8b/2b,,,,7,5,
6,,1,8,3,5,4,7,2,8,4,6,3,4,2,8,
1,6,1,4,1,7,1,5,1h[8:1],,{24}8,7,6,{16}35,,28,,
7,1,5,3,7,4,8,2,6h[8:1],,{24}1,2,3,{16}45,,37,,
{12}25,3,4,{16}57,,6,4,,3,5,1,6,3,8,,
36,,8,1,6,4,5,2,7,1,5,3,6,5,7,1,
8,3,8,5,8,2,8,4,8h[8:1],,{24}1,2,3,{16}64,,71,,
2,8,4,6,2,5,1,7,3h[8:1],,{24}8,7,6,{16}54,,62,,
{12}74,6,5,{16}42,,3,5,,6,4,8,3,6,1,,
25,,1,1,6,3,4,2,7,7,4,6,2,5,3,8,
2,2,5,4,6,2,7,,1/6h[8:1],,{24}1,2,3,{16}46,,35,,
8,8,5,7,4,6,2,5,1h[8:1],,{24}8,7,6,{16}53,,46,,
{12}15,2,3,{16}47,,7,5,,4,6,2,8,3,5,,
74,,8,8,3,6,5,7,2,2,5,3,7,4,6,1,
7,7,4,5,3,7,2,,8/3h[8:1],,{24}8,7,6,{16}53,,64,,
1,1,4,2,5,3,7,4,8h[8:1],,{24}1,2,3,{16}46,,53,,
{12}84,7,6,{16}52,,2,4,,5,3,7,1,6,4,5,
2b-5[8:1],1,3,8,2,,7,,6,,46,,25,,1,,
7-4[8:1],8,6,1,7,,2,,3,,35,,74,,8,,
1-5[8:1],8,2,7,1,,7,,6,,74,,28,,7,,
8-4[8:1],1,7,2,8,,2,2,,5,3,6,4,5,3,,
7<4[8:1],8,6,2,7,,2-5[8:1],,1,,28,,7,,46,,
2>5[8:1],1,3,8,2,,7-4[8:1],,8,,71,,2,,35,,
8p4[8:1],1,7,2,8,,2-5[8:1],,1,,28,,7,,46,,
3,3,5,2,7,4,8,8,3,7,1,5,2,2,6,4,
7p3[8:1],8,6,1,7,,2>5[8:1],,1,,82,,7,,47,,
2q6[8:1],1,3,8,2,,7<4[8:1],,8,,17,,2,,52,,
7p3[8:1],8,6,1,7,,2>5[8:1],,1,,82,,7,,47,,
6,6,2,2,5,3,7,4,8,8,3,3,4,2,6,1,
8V64[8:1],1,7,2,8,,1-5[8:1],,8-6[8:1],,1,,8,,3,,
1V35[8:1],8,2,7,1,,8-4[8:1],,1-3[8:1],,8,,1,,6,,
8V64[8:1],1,7,2,8,,1-5[8:1],,8-6[8:1],,1,,8,,3,,
2b,2,2,,6b/5b,,7b,4,,2,4,1,8,5,6,1,1b,,,,E
