&title=バブリン
&artist=HIMEHINA
&first=0.5
&des=是接吻还是结婚御坂自有判断
&lv_5=14
&inote_5=(198)
{8}
1h[4:1]/5h[4:1],,,,2/6,2/6,2/6,,3/7,3/7,3/7,3/7,3-7[8:1]/7-3[8:1],,Cf,,
{8}
8h[4:1]/2,,2,,1,1,7,7,3,3h[4:1],6,6h[4:1],,4,3,2,
{8}
1h[4:1]/7,,7,,6,6,8,8,7h[8:1],1x,7h[8:1],2x,7h[8:1],3x,7h[8:1],4x,
{8}
5hx[4:1]/6x,,7,,2,2,6,6,8,8h[4:1],7,7h[4:1],,5,4,3,
{8}
1h[4:1]/2,,3,,8,8,4,4,6,5,3,2,6,7,3,4,
{8}
6-8-4-2[4:6],5,,5,,5,,5,,5,,5,,5,,5,1qq1[8:5],4,,4,,4,,4,8-6[4:1],4,,4,,4,5,5,
{8}
3qq8b[4:6],5,,5,,5,,5,,5,,5,,5,,5,8v3b[4:2],5,,5,,6,,7,8xv5[4:2],4,,4,,3,3x,2,
{8}
1s5[4:2],6,,6,,6h[8:1],,6,1-4<6[4:2],7,,7,,7h[8:1],,7,E5,7,E3,7h[8:1],E4,7,E3,7,3x,6,4,5,3,5h[8:1],4,4,
{8}
5pp5qq4[4:6],3,,3,,2h[8:1],,2,,1,,1,,1h[8:1],,1,
{8}
5bx<5[4:4],1x,,1x,,3hx[8:1],,3x,,1x,,1x,6,2,7,3,
{8}
4h[8:1]/8h[8:1],,3h[8:1]/7h[8:1],,2-5[8:1],2,7,7,3,3h[4:1],5,5h[4:1],,2,4,3,
{8}
2h[8:1]/4h[8:1],,1h[8:1]/5h[8:1],,6-1[8:1],6,3,3,7h[8:1],1x,6h[8:1],3x,7h[8:1],1x,6h[8:1],3x,
{8}
4h[8:1]/7h[8:1],,1h[8:1]/6h[8:1],,2>5[8:1],2,1,1,3,3h[4:1],8,8h[4:1],,5,7,6,
{8}
5h[8:1]/7h[8:1],,4h[8:1]/8h[8:1],,7<4[8:1],7,2,2,1,3,2,4,3,5,4,6,
{8}
5x`7x,,,5`6,5`6,,,4`7,5`6,5`6,5s1[8:3]`6,5`6,5`6,,,,
{8}
2x/4x,,,3/4,3/4,,,2/5,3/4,3/4,3v8[4:1]/4-7[4:1],3/4,3/4,,,,
{8}
D8/A8/D1/A1/E2/B2/C/E5,,,3`6,36,,,4`5,45,4`5,45,4`5,45,,1>5[4:1],1,
{4}
5<1[4:1],1>5[4:1],5<1[4:1],1>1[4:2],Cf,,,
{8}
2-5[8:1],2,
{8}
1,,7-4[8:1],7,8,,1q5[8:1],1,7p3[8:1],7,8>3[8:1],8,5-2[8:1],,6,,
{8}
7xpp5[8:3],,4,3,2xqq4[8:3],,7,6,5bpp6[4:1],,5bqq4[4:1],,5b,,7p3[8:1],7,
{8}
8,,2q6[8:1],2,1,,8-4[8:1],8,1-5[8:1],1,7-4[8:1],7,2,,3qq6[4:2],,5,,6pp3[4:2],,5,,4b>5b[4:2],,,,,,Cf,,2-5[8:1],1,
{8}
1,,7-4[8:1],8,8,,2q6[8:1],2,8<5[8:1],8,1v4[8:1],,1v6[8:1],,1,,
{8}
8x-4qq2[8:3],,7,6,6v7-1[8:3],,2x,3,4b>1[8:1],,4b<7[8:1],,4b,,1>4[8:1],8,
{8}
7,,8<5[8:1],1,2,,1-3[8:1],1,8-4[8:1],8,1-5[8:1],1,8xw4[8:1],,8x,,
{8}
2/7,,4/5,,3/6,3/6,3/6,,1/8,1/8,2/7,2/7,3/6,,Cf,,
{8}
4h[8:1]/8h[8:1],,3h[8:1]/7h[8:1],,
{24}
2,,,E3,B3,B4,
{8}
7,8,3,3h[4:1],5,5h[4:1],,2,4,3,
{8}
2h[8:1]/4h[8:1],,1h[8:1]/5h[8:1],,
{24}
6,,,E7,B7,B8,
{8}
3,2,6h[8:1],1x,6h[8:1],7x,6h[8:1],5x,6h[8:1],3x,
{8}
4h[8:1]/7h[8:1],,1h[8:1]/6h[8:1],,
{24}
2,,,E3,E4,E5,
{8}
1,8,3,3h[4:1],8,8h[4:1],,5,7,6,
{8}
5h[8:1]/7h[8:1],,6h[8:1]/1h[4:1],,
{24}
7,,,E7,E6,E5,
{16}
8x,1x,2x,3x,
{4}
4bx-1[8:1]/5b-8[8:1],4b/5b,4b-1b[8:1]/5b-8b[8:1],4b/5b,
{4}
2xV46[4:2],,E8/B7/B8,,8<4[4:2],,B2/B3/E3,,4qq4pp4[8:7],,E1/B8/B1,,8<5v7[4:2],,A2/D2/B2/E3/B3/A3/D3,,
{4}
4-1-6[4:2],,A5/E6/E5,,5-1[8:3],,A3/E3/E4,,1V35[4:2],,B6f,,8<4[4:2],,3hx[8:1],2hx[8:1],
{8}
1pp6[4:6]*pp6[4:6],,6h[8:1],,6h[8:1],,6h[8:1],,7h[8:1],,7h[8:1],,7h[8:1],,7,,
{8}
4h[4:1]/5h[8:1],,,3h[4:1]/4h[8:1],,,5h[4:1]/6h[8:1],,,4h[4:1]/5h[8:1],,,3/6,,3/6,,
{8}
B6,3,3,3h[8:1],4,4h[8:1],5,5h[8:1],6,6h[8:1],5,5h[8:1],4,4h[8:1],3,3h[8:1],
{8}
7<4[8:1],,7,3-7[8:1],,3/5h[4:1],,1h[4:1],,6,7,8-5qq6[4:4],,1,2,3,
{4}
4h[4:4],,,,7h[4:4],3,3,3,
{8}
1h[4:1],8,7,6,
{16}
1x,2,3,4,
{24}
5x,6,7,8,1,2,
{8}
3/6,4x/5x,1x/8x-2v4[16:5]*-6v4[16:5],,8bx,,Cf,A4f,,1b/2b,1b<6b[8:1]/2b>5b[8:1],,A1/D2f/A2,,7x-4[8:1],8x,
{8}
7x,,2-5[8:1],1,2,,8-4[8:1],1-3[8:1],8,1,8<5[8:1],1,8pp2[6:1],,8,,
{8}
6<1[8:1],,3,4,5>2[8:1],,8,7,6b<2[4:1],,2bv4[4:1],,3b,,
{8}
1x>4[8:1],5x,1x,,8<5[8:1],4,8,,1-3[8:1],8-4[8:1],1,8,1V35[6:1],8,1v6[8:1],,1,,
{4}
2>5[8:1]/7x,8p4[8:1]/2,8/1pp1[4:1],1b<1b[4:2],,,Cf,
{8}
2-5[8:1],8,
{8}
2/8,,7-4[8:1],1,1/7,,1-3[8:1],5-7[8:1],1-5>3b[4:1],5,1,,8-4[8:1]*-6[8:1],,8,,
{8}
1>4[8:1],,7,8,1<6[8:1],,3,2,1b-5[8:1],,1bw5b[8:1],,1b,,2h[8:1]/8-4[8:1],,
{8}
2/8,,1-5[8:1]/7h[8:1],,1/7,,2-4[8:1],8-6[8:1],2,8,1,7,
{16}
1x,2x,3x,4x,5x/6x,,,,
{8}
1/5,,3/7,,2/6,2/6,2/6,,1x/5x,2x/6x,3x/7x,4x/8x,1x-6[8:1]/5x-2[8:1],,,,
{2}
7hx[8:3]/8hx[8:3],6h[8:3]/7h[8:3],7h[8:3]/8h[8:3],67,1h[8:3],2h[8:3],1h[8:3],2,
{2}
7h[8:3]/5h[8:3],4h[8:3]/6h[8:3],7h[8:3]/5h[8:3],46,1h[8:3],4h[8:3],1h[8:3],
{4}
4,2x,
{8}
5<7[8:1],,3,3,4>2[8:1],,6,,5<7[8:1],,3,3,4-1[8:1],,6,,
{8}
8-6[8:1],,2,2,1-3[8:1],,7,,6,,3>1[8:1]/6<8[8:1],,,,,,
{8}
6>4[8:1],,1,1,8>2[8:1],,5,,6,,5/7,,4/8,,3,1,
{4}
2b-6[8:1],1b-7[8:1],3b-5[8:1],6b,
{16}
1b,8,1,8,1,8,1,8,2,,,,,,,,
{1}
2-5[4:14]/6-1b[4:14],,,,
{4}
2bv5[8:1]/6bv1b[8:1],2b/6b`Cf,,,3h[4:1],4h[4:1],5h[4:1],6h[4:1],
{4}
1-5[8:1],8-4[8:1],1>4[8:1],5<8[8:1],
{24}
1bx,2,3,4,5,6,7,8,1,2,3,4,5b/Cf,,,,,,
{8}
2x-5[8:1],1,2/8,,7-4[8:1],8,1/7,,2/5,3,4/7,6,5-2[8:1]/3,4,5/7,,C,,
{8}
7pp8-5b[8:3],,4,3,2xqq1-4b[8:3],,7,6,5b-8-6[4:1],,5b-2-4[4:1],,5b,,
{8}
1-5[8:1],8,1/7,,8-4[8:1],1,2/8,,1/5,2,3/7,6,5/2,3,4-7[8:1],,4/3qq6b[4:2],,
{4}
5,6xpp3b[4:2],5,4,Cf,,
{16}
2,7,2,7,2>6>2[4:2],7,2,7,
{8}
2,,1,,8,7,6,5,3/4,2,3/4,5,2,6,3,8,
{4}
4-8-2-6[4:2],7,5,7,8-4<6-2[4:2],3,1,3v8v5[16:7],
{8}
7,,1,,8x,7,6,5,4qq4[4:1],,4pp4[4:1],,7,,8pp7[4:3],,4,,4,,4,,
{24}
A7,E7,E6,,,,A2,E3,E4,,,,A7,E7,E6,,,,A7/A2,E7/E3,E6/E4,D5f,,,,,,,,,
{8}
1v4[8:1]*v6[8:1],,1,,2-5[8:1],2,8-5[8:1],8,4-1[8:1],4-7[8:1],,,,2,8,8,
{4}
3<5[4:1],5<8[4:1],8>4[4:1],4,
{32}
E5,E6,E7,E8,E1,E2,E3,E4,E5,E6,E7,E8,E1,E2,E3,E4,E5/Cf,,,,,,,,
{8}
2x>5[8:1]/8x,1,2/8,,7<4[8:1]/1,8,1/7,,2-5[8:1],1,7-4[8:1],8,2-5[8:1],1,8w4b[8:1],,8,,
{8}
1x-3[8:1]/8x-6[8:1],,1x/8x`E2`A2,,2x>5[8:1]/7x-2[8:1],2x/7x,2x/7x`B2`E3,,
{8}
5x/8x,5x/8x,5xp1[8:1]/8x-6[8:1],5x/8x,5x/8x,,Cf,,
{8}
2h[8:1]/5h[8:1],,2h[8:1]/5h[8:1],,
{24}
6,,,2x,3x,4x,6,,,3x,,,
{8}
7-5[8:1],7,4-2[8:1],4,,6,3,6,4h[8:1]/7h[8:1],,4h[8:1]/7h[8:1],,
{24}
3,,,7x,6x,5x,3,,,6x,,,
{8}
2h[4:1],7x,6h[4:1],1x,2h[4:1],8x,6h[8:1],8x,
{8}
1h[8:1]/7h[8:1],,2h[8:1]/8h[8:1],,
{24}
7,,,1x,2x,3x,6,,,4x,,,
{8}
5<7[8:1],5,4>2[8:1],4,,8,1,8,
{8}
2/7,,1/8,,
{16}
3,7,3,7,2,8,2,8,
{8}
1x,2x/8x,3x/7x,4x/6x,5xw1[8:1],,5b,,,,,,,,,,E
