&title=雑踏、僕らの街
&artist=トゲナシトゲアリ
&first=0.65
&des=ホシノちゃん
&des_5=ホシノちゃん
&lv_5=13+
&inote_5=(171)
{8},,,,,8,3/7,2/6,
{4}1b-5[2:3]/5b,,,,,,,,1-5b[2:3],,,,,,,,
{4}6/7h[8:1],5/7h[8:1],4/7h[8:1],3/7,2h[8:1]/6,2h[8:1]/5,2h[8:1]/4,
{8}2/3,1,7/8>5[2:1],,,6,6h[4:7],,,,2bh[4:5],,,,,,,,,,,,1w5[8:1]*w5[8:1]*w5[8:1]*w5[8:1]*w5[8:1],,E8/B7/Cf/B3/E3,,
{16}1,7,2,6,3,5,4h[8:1],,1,2,8,3,7,4,6h[8:1],,7,8,1,2,8,7,6,5,2,1,3,8,4,7,5,6,
{16}4,3,2,1,6,5,4,3,8,7,1,6,2,2,1,3,6,5,6,3,4,3,7,5,7,2,4,2,8,7,6h[8:3],,
{8}1b>2v5>3[8:5],,,,
{16},,,,6,,7,,,8,,,1,,8,1,2/7qq5-7>2[8:5],,,,,,,,,,3,,4,,,4,,,3/5,,2/6,,1,8,
{16}1V35-2-4b[8:5],,,,,,,,,,,,6,,7,,,8,,,7,,6,5,4/7pp6>4b[8:5],,,,,,,,,,3,,2,,,1,,2,2/5,,3/6,,,,
{16}7h[8:1]/5,,8,8h[8:1],,,1v6b[8:1]/7,,2pp5[2:1]/8,,1,,2,,,,,,,,6,,7,,
{16}8h[8:1],,2,2h[8:1],,,4<7b[8:1],,3qq8[2:1],,4,,3,,,,,,,,,,,,
{16}2h[8:1]/4,,1,1h[8:1],,,8v3b[8:1]/2,,7qq4[2:1]/1,,8,,7,,,,,,,,3,,2,,
{16}1h[8:1],,7,7h[8:1],,,5>2b[8:1],,6pp1[2:1],,5,,6,,,,,,,,2>3-5b[8:1],,,,,,,,
{32}7/B6,B5,,,,,,,7,,,,,,,,7/B4,E4,,,,,,,7,,,,,,,,
{16}2/E1,,E8,,2/E7,,E6,,2/E5,B4,,C,2,,B7,,
{32}6/E1,B1,,,,,,,6,,,,,,,,6/B2,B3,,,,,,,6,,,,,,,,
{16}3/D1,,D8,,3/D7,,D6,,3/B5,B6,B7,B8,3b,,4,,
{16}4v1[8:1],,8,8,4,,6,6h[8:1],,,2,,3v8[8:1],,7,7,3,6,6h[8:1],,,,1,,
{16}2<7[8:1],,3,4,2,5,5h[8:1],,,,6,,7v4[8:1],,6,5,7,2,2h[8:1],,,,2b/6,,3/7b,,4b/8,,1bqq7[8:1]/5v3b[8:1],,,,
{16},,,,8-2b[8:1],,5-1b[8:1],5,8<5[8:1],,5>2[8:1],,8b,,,,
{16},,5,,4-6[8:1],,1-5[8:1],1,4>1b[8:1],,1<6b[8:1],,4b,,,,,,5,,4/6,,3/7,,2>5[4:1]/8,,,,
{16}5<8[4:1],,,,8V24[4:1],,,,4qq8[2:1],,,,5,,6,,7,,7h[8:1],,,,7,,4-8[8:1]/6,,3,,2b/4b,,,,
{16}2,1,3,8,4-2[8:1],7,5-1[8:1],6,4q8b[8:1],,5,,4,,,,
{16}7,8,6,1,5-7[8:1],2,4-8[8:1],3,5p1b[8:1],,4,,5,,,,
{64}3h[1:1],,,,,,,,,,,,,,,,7x-4b[8:1],D8,A8,D1,A1,D2,,,,,,,,,,,,,,,,,,,,,,,,,,,7x<4b[8:1],D8,A8,D1,A1,D2,,,,,,,,,,,,,,,,,,,,,,,,,,,
{16}3,,2,,1-5b[8:1],6,3,8,1<6[8:1],,6>3[8:1],,1b/Cf,,,,
{16},,7,,8-4b[8:1],3,6,1,8>3[8:1],,3<6[8:1],,8b/Cf,,,,,,4,,5/3,,6/2,,7<4[4:1]/1,,,,
{16}4>1[4:1],,,,1V75[4:1],,,,5pp1[2:1],,,,4,,3,,2,,2h[8:1],,,,2,,5-1[8:1]/3,,6,,7b/5b,,,,
{16}8,5,7,4,6<8[8:1],3,5-3>2[8:1],2,6v1b[8:1],,5,,6,,,,
{16}2,4,3,5,4>2[8:1],6,5-1[8:1],7,4-6<7b[8:1],,5,,4,,,,
{8}8xh[1:1],,3-6[8:1],4,,,3v1[8:1],4,,,3/7-3[8:1],1h[8:1]/5,,8,1,2,
{16}2b/4b,,2,4,,4,5,,5v2[8:1],7,,7,5,,8h[8:1],,3,,3,1,,1,8,,8v3[8:1],6,,6,8,,5h[8:1],,
{16}2,,2,4,,4,6,,6p2[8:1],8,,8,6,,8h[8:1],,3,,3,1,,1,7,,7V13[8:1],5,,5,7,,6h[8:1],,
{16}4b,,3,4,,5,4,,2,4-8[16:1],,6h[16:3],4,,,,5,,6,5,7V58V63[2:1],4,8,,1/7,,2,,3-7[8:1],,2,,1h[4:1],,,,,,2/6,,2h[4:1]/6h[4:1],,,,,,,,
{32}2x/6x,3x/7x,4x/8x,1xh[32:37]/5xh[32:37],,,,,,,,,,,,,
{4},,,,1-6b[8:1]/5-2[8:1],
{64}Cf,D8/E8/D4/E4/B3/B4/B7/B8,,,,,,,,,,,,,,,
{16}2x,1,3,8,4,7,5,6,8,7,1,6,2,5,3,4,1,8,2,7,4,5,3,6,2,2,4,4,5,5,7,7,
{16}1b-5[16:1],,,7b-3[16:1],,,4b-1[16:1],,,6b-2[16:1],,,3b-5[16:1],,,7b-1[16:1],,,2b-4[16:1],,,5b-8[16:1],,,1b-4[16:1],,,7b-3b[16:1],,,7b/Cf,,,,,,,,,,
E
