&title=砂糖玉の月
&artist=やなぎなぎ
&first=0
&des=nakura
&lv_5=13
&inote_5=(99)
{1},
{48}3>5[32:17]/7,4h[48:23],,,,,{8},,,,,{48}3-8[8:2],4-7[48:17],,,,,{8},
{4},,1>8[4:4]*<1[4:4],,{1},
{48}3/7,4h[48:23],,,,,{8},8<3[16:5],,,3q6[8:3],2h[4:2],,
{8},,,1h[8:1],7h[8:1],4h[8:1],6h[8:1],3pp4[8:2],
{8},4pp1[8:3],,,8,8h[16:3],,,
{8}1/7h[8:4],,2<5[16:5],,,5pp1[8:3],4h[4:2],,
{8},,,8/1,7<1[4:1]/2,3,4h[4:1],,
{8},4/8,3<6[8:2]/7>2[8:2],2/6,,,,,
{48}3/7,4qq1[48:35],,,,,{8},7h[4:1],,,,6,,
{8}6h[4:1],,8,,5/8V26[2:1],,5h[4:1],,
{8},,4,,4-8[8:2],,,{16}1,2,
{16}3,,4,7,,5,6h[16:2],,4>8[8:2],,,,8V25[8:2],,,,
{8}7h[4:1],,,2/6,3/5p4[8:2],,3,,
{8}2h[4:1],,{16}1,2,8,3,7,4,6h[16:4],,{32}8pp5[8:3],1,2,3,4,5,6,7,
{8}8<5[8:1],,,,{32}3qq6[8:3],2,1,8,7,6,5,4,3<6[8:1],,,,,,,,
{8},,{32}8qq3[8:3],7,6,5,4,3,2,1,8>3[8:1],,,,,,,,,,,,,,,,
{32}5qq4[16:3]*pp6[16:3],6,7,8,1,2,3,4,{8}5<4[8:2],,,,8h[48:8],{16},{48}1/7,2/6,3/5,
{8}4-8[8:3],,,,4bw8[8:1],,,,
{8}2h[256:1]/7h[256:1],,4>5[4:1]/6,3/5,2/4b,{16}4,4,3,4,2/5,,
{16}6,6,5,7,4/8,,3,4/2,,6,7h[16:3]/5,,{32}8pp4[8:3]*qq5[8:3],1,2,3,4,5,6,7,
{8}8,,,,1/8,2/7,3/6h[16:2],{16}5,7,
{16}3,,8,8,2,5,8,8,6<3[16:3],,,3,3,,4-1[8:1],,
{16},5,5,,5<4[4:1],,,,,,,,1q6[8:5]*>6[8:5],,,,
{4}1b,,,{16}2h[8:1]/7h[4:1],,,,
{32}3,4,5,6,7,8,1,2,{8}5<4[4:1]/3,6/4,7/5b,{16}5,5,6,5,7/4,,
{16}3,3,4,2,5/1,,6,7/5,,3,2h[16:3]/4,,{32}1qq5[8:3]*pp4[8:3],8,7,6,5,4,3,2,
{8}1,,,,8/1,7/2,6/3h[16:2],{16}2,4,
{16}1,5,8,,1>4[8:1]/6<8[10:1],,5,,1qq4[8:3]/6,,,,{8}5,4,
{8}3,2,1pp5[8:3],,4,5,6,7,
{16}8,8h[16:2],,2,3/7h[16:2],,5,6,3,3,4,,2/6,,7,7,
{16}1,4,4h[16:2],,{32}2,3,4,5,6,7,8,1,{16}2/6,,3/7-3[8:1],,4-8[8:1]/8,,,,
{8},,3/7,2-6[8:1]/6,1/5-1[8:1],,,,
{8}4/8,3v2[8:1]/7,2-4[10:1]/6-4[10:1],,,,1/5,2/6v7[8:1],
{8}3-5[10:1]/7-5[10:1],,,,{48}2/7,3/6,5q8[48:18]/4,,,,{8},,,
{8},3,4b,,
{1},,
E
