&title=ドリームイーター
&artist=PIKASONIC & nakotanmaru feat.可不
&first=0
&des=IMRIS
&lv_5=13+
&inote_5=(100)
{4},,,,
{24}4,,5,3h[12:1],,,,,,,,,
{24}2,,4,3h[12:1],,,,,,,,,
{24}5,,4,6h[12:1],,,,,,,,,
{24}7,,5,6h[12:1],,,,,1h[24:3],,,,
{24}5,,3,4h[12:1],,,,,,,,,
{24}2,,6,4h[12:1],,,,,,,,,
{24}6,,4,5h[12:1],,,,,,,,,
{24}3,,7,5h[12:1],,,,,8h[24:4],,,,
{24}1,,7h[24:3],1,,,{8}1,1,
{24}1,,5h[24:3],1,,,1,,,1,,,
{24}1,,3h[24:3],1,,,{8}1,1,
{24}1,,2,1,,,81,,7,,,,
{24}5,,2h[24:3],5,,,{8}5,5,
{24}5,,4h[24:3],5,,,5,,,5,,,
{24}5,,6h[24:3],5,,,{8}5,5,
{24}5w1[8:1],,1,6,,4,,,,,,,
{24}3b-8[8:1]/6b,,,2,,,4,,,5,,,
{24}7>2[8:1],,6,5,,,3,,,,,,
{24}4-1[8:1],,3,8,,,4<7[8:1],,,6,,,,,1,1,,,2/8,,,7,,4,
{8}5>2[8:1],,8,6,15,3,{24}7pp2[8:3]/4,,,5p4[8:2],,,,,,,,,,,,,,,
{24}45,,7,8,,,1-4[8:1],,24,,,5,
{24}1b,,,6,,7,8pp7[8:2],,,56,,,
{24}4,,,,,,3<6[8:1],,,2,,,
{24}31,,,2,,,8<5[8:1],,,5z1[8:2],,,84,,,2,,,3,,,4,,,
{24}8,,2,6h[24:2],,8,,,,5,,,{24}1,,7,3h[24:2],,1,,,2,2,,4,
{24}3,,,46,,,7,,35,,,1,8,,2,7,,4,5-1[8:11],,37,,,,
{8},,,,,,,,,,,,6>3[8:2],,,,1V75[8:3],,,,3V15[8:3],,,,4>5[8:5]*<4[8:5],,,,,,,,
{8}4h[24:5]/3h[24:3],{24},,,5h[8:1]/2h[24:5],,,,,,{48}37,,,,1,8,{24}1,,7,2,,46,,,,
{24}1b-4[10:1]/5b,,2,6-1[10:1],,7,,,,,,,2-6[10:1],,3,7-1[10:1],,8,,,,,,,
{24}4<7[8:1],,,3,,,1p8[16:3]/4,,,2,,,1/4h[8:1],,,,,,3,,,7/1,,,
{48}2V47[8:2]/6,35,4,,,,
{8},7V52[8:2],8,2V84[16:4],1,6,4,5-2[8:1],,57,,4-7[8:1],3,{24}14,,2,,,,
{24}8b-5[10:1],,7,3-8[10:1],,2,,,,,,,7-3[12:1],,6,2-8[12:1],,1,,,,,,,
{8}5-2[8:1],7,5<3[24:5]/1p4[16:2],7,51,,8-6[10:1]*-4[8:1],61,
{8}8,,2-5[8:1]/5,1,7-4[8:1]/2,8,3<6[8:1]/7,2,
{8}8>3[8:1],8,5<8[8:1],5,{24}2,,1,,,6,7,,4,3,,,
{8}8b,,,,1h[24:3]/7h[24:2],,,,6h[24:3]/5h[24:2],,,,6,8,1,2,
{8}3h[24:3]/4h[24:2],,,,7h[24:3]/5h[24:2],,,,3h[24:3]/5h[24:2],,,,4q5[8:2],,,,
{8}6,,68,,62,,54,,47,,41,,43,,45,,
{8}6pp1[16:5]/5,,1,,3pp6[16:5],,7,,{24}8,,,7s3[24:9],,5z1[24:10],,,,,,,,,,,,,,,,,,,
{8}8/2-5[8:1],8,8/2,8,7/5-1[8:1],7,7/5,7,
{8}6/8-3[8:1],6,6/8,6,5/2-7[8:1],5,5/2,5,
{8}4/6-1[8:1],4,4/6,4,3/1-5[8:1],3,3/1,3,
{8}2/4-7[8:1],2,2/4,2,1/6-3[8:1],1,1/6,1,
{24}2h[12:1],,4,3h[12:1],,5,4h[12:1],,6,5h[12:1],,7,
{24}8h[12:1],,6,1h[12:1],,7,2h[12:1],,8,3h[12:1],,1,
{24}4h[12:1],,8,3h[12:1],,7,2h[12:1],,6,1h[12:1],,5,
{24}8h[12:1],,4,1h[12:1],,7,3h[12:1],,6,5h[12:1],,8,
{24}4,5,3,5,4,6,3,5,2,6,4,7,3,4,2,6,5,7,2,3,4,5,6,7,
{8}1bs5[8:5]/8b,,,,,,,,
{8}3h[24:5]/4h[24:3],{24},,,5h[8:1]/7h[24:5],,,,,,{48}26,,,,1,8,{24}1,,7,5,,34,,,,
{24}1-4[24:16]/5,,6,4,,6,,,3,4,,3,6,,5,8,,3,5b,,1b,,,,
{24}6-1[24:16]/5,,3,8,,3,,,5,2,,5,4,,7,2,,5,4b,,6b,,,,
{24}4-8[24:16]/8,,6,1,,6,,,3,7,,3,5,,2,7,,1,5b,,4b,,,,
{24}71,,2,4,,3,38,,7,5,,6,{8}6/1-5[12:1],8-4[24:2]/3,{24}1b,,8b,,,,
{24}1b-4[10:1],,2,6-1[10:1],,7,1,,,6,,,2-5[12:1],,3,7-2[12:1],,8,2,,,7,,,
{8}4<7[8:1],2,4>6[24:5]/8q5[16:2],2,48,,1-4[9:1]*-6[9:1],37,
{8}1,,84,6,{24}1>4[24:2]/5,,4<8[9:1],3,,7,1,,,,,,
{24}5,,6h[24:1],1,,3h[24:1],8,,57,,,6-1[10:1]/8,,,1-5[12:1]*-4[12:1],28,,,6,,,,,,
{24}37,,6,5,,8h[8:1],,,4h[8:1],,,2,,,3,4-2[10:1],,,81,,,4,,,
{24}6,,3,4,,1-4[8:1],,,27,,,15,,,,8h[24:3],,,5,,3,,,,
{24}26,,7,8,,5h[8:1],,,1h[8:1],,,3,,,5,4-2[10:1],,,57,,,4,,,
{8}4<7[8:1],,4/5-1[8:1],,{24}58,,,6h[24:3],,,8b,,1b/4b,,,,
{24}73,,2,1,,4h[8:1],,,8h[8:1],,,6,,,7,8-6[10:1],,,45,,,8,,,
{24}2,,7,8,,5-8[8:1],,,63,,,51,,,,4h[24:3],,,1,,7,,,,
{24}62,,3,4,,1h[8:1],,,5h[8:1],,,7,,,1,8-6[10:1],,,13,,,8,,,
{24}1v2[9:1],,5v6[12:1],5,,,,,,,,37,,,,48,,,1b/5b-8[8:1],,2b/6b,,,,4b,,
