&title=お砂糖mogmog
&artist=かめりあ
&first=-0.13
&des=お大果mogmog
&lv_5=12+
&inote_5=(130){4},{8},,,,3h[4:1],4,
{4}5,{8}4h[4:1],5,{4}6,{8}3h[4:1],4,
5,6,6h[4:1],5,{4}4,{8}6h[4:1],4,
{4}5,{8}5h[4:1],3,{4}4,{8}6h[4:1],3,
4,5,{4}5-3[8:1],6x,{16}7-5[8:1],,,4v1[16:3],
,,{8}2,{4}2-4[8:1],5v8[8:1],7-5[8:1],
4-2[8:1],4-8[8:1],4x,{16}2-4[8:1],,,5v8[16:3],
,,{8}7,{4}7-5[8:1],4v1[8:1],2-4[8:1],
5-7[8:1],5-1[8:1],5x,{8}7b,{16}6,5,
{8}6h[4:1],8x,5h[4:1],7x,6h[4:1],8x,{16}1,6,1,6,
{8}2-4[8:1],2,5-1[8:1]*-7[8:1],5,,,2b,{16}3,4,
{8}3h[4:1],1x,4h[4:1],2x,5h[4:1],6x,{16}7,5,7,5,
{8}8-6[8:1],8,5-1[8:1]*-3[8:1],5,,,8b,{16}2,1,
{8}2h[4:1],3x,8h[4:1],4x,2h[4:1],5x,{16}6,1,6,1,
{8}7-1[8:1],7,2-6[8:1]*-4[8:1],2,,,7b,{16}6,5,
{8}6h[4:1],8x,5h[4:1],7x,4h[4:1],3x,{16}2,4,2,4,
{8}1-3[8:1],1,4-8[8:1]*-6[8:1],4,,,{4}1b>4[8:1],
5h[8:1],5>2[8:1],8h[8:1],8<5[8:1],
4h[8:1],4<7[8:1],1h[8:1],{8}6h[2:1]/2-4[8:1],2,
,,2-4[8:1],2,,,{4}5-1[8:1],
2h[8:1],8<5[8:1]/2>5[8:1],,6b<1[8:1],
2h[8:1],2>5[8:1],8h[8:1],8<5[8:1],
4h[8:1],3<6[8:1],5h[8:1],{8}7-5[8:1],7,
{4}3,{8}7-5[8:1],7,{4}2-6[8:1],4h[8:1],
7>4[4:1],{8}E5,C,{4}E1,{8}1/8,{16}2,7,
{8}2h[4:1],1x,4h[4:1],5x,3h[4:1],2x,{16}5,4,6,5,
{8}7-4[8:1],7,1-5[8:1]*-3[8:1],1,{16},,,,6-8[8:1],,,5,
{8}6x,E1,{16}6-1[8:1],,,5,{8}6x,E3,{16}6-8[8:1],,,5,
{8}6x,E1,{16}6-1[8:1],,,5,{8}6x,E3,8,{16}6,5,
{8}6h[4:1],8x,5h[4:1],4x,6h[4:1],7x,{16}4,5,3,4,
{8}2-5[8:1],2,8-4[8:1]*-6[8:1],8,{16},,,,3-1[8:1],,,4,
{8}3x,E1,{16}3-8[8:1],,,4,{8}3x,E7,{16}3-1[8:1],,,4,
{8}3x,E1,{16}3-8[8:1],,,4,{8}3x,E7,1bx>8[2:1],1bxh[8:5],
,,,,,,4/8<1[2:1],8/4xh[8:5],
,,,,,,3/7qq8[2:1],7/3,
,,{4}8>3[4:1],3<7[16:5],1xh[2:1],
,8xw4[8:1],{8},,8bx<1[2:1],8bxh[8:5],
,,,,,,5/1>8[2:1],1/5xh[8:5],
,,,,,,6/2pp1[2:1],2/6,
,,{4}1<6[4:1],6p4[16:7],8xh[4:1],
,8xw4[8:1],,,2b/E5f,
7b/E1f,1b/Cf,{8}1bV38[4:1],1,
{4}8-4[8:1],{8}5V74[4:1],5,{4}4-8[8:1],{8}2V41[4:1],2,
{4}1-5[8:1],{8}6V85[4:1],6,5-2[8:1]*-3[8:1],5x,{16},,,,,1,
8,1,{4}8-4[8:1],D2/A1/E2,3-1[8:1]/4-1[8:1],
3x/4x,8-5[8:1]*-3[8:1],B8f/E1/E8,{8}3bxV15[4:1],3,
5-3[8:1],5,7V15[4:1],7,5-7[8:1],5,2V84[4:1],2,
4-2[8:1],4,6V84[4:1],6,4-6[8:1]*-2[8:1],4,{16},,,,,8,
1,8,{4}1-5[8:1],D8/A8/E8,6-8[8:1]/5-8[8:1],
5>2[8:1]/6p1[8:1],6/5,E8f/A8/D8,{8}2bxV84[4:1],2,
4-6[8:1],4,7V15[4:1],7,5-3[8:1],5,2V84[4:1],2,
4-6[8:1],4,7V15[4:1],7,5-2[8:1]*-8[8:1],5,{16},,,,,1,
8,1,{4}8-4[8:1],D2/A1/E2,3-1[8:1]/4-1[8:1],
4<7[8:1]/3q8[8:1],3/4,A1f/E2/D2,{8}1bV75[4:1],3,
{4}5-8[16:3],{8}8bV24[4:1],2,{4}4-1[16:3],{8}1bV75[4:1],3,
{4}5-8[16:3],{8}8bV24[4:1],2,4w8[8:1],4x,{16},,,,,2>6[8:1],
6,1,{4}7,{16},,6,5,{8}7,{16}4,5,
{8}3,{16}2,4,{8}3,{16}5,4,{8}6,7,7b,{16}6,5,
{8}6h[4:1],8x,5h[4:1],7x,6h[4:1],8x,{16}8,7,1,8,
{8}2-4[8:1],2,6-2[8:1]*-8[8:1],6,,,2b,{16}3,4,
{8}3h[4:1],1x,4h[4:1],2x,5h[4:1],6x,{16}6,5,7,5,
{8}8-6[8:1],8,4-8[8:1]*-2[8:1],4,,,8,{16}2,1,
{8}2h[4:1],3x,8h[4:1],4x,2h[4:1],5x,{16}5,4,6,5,
{8}7-5[8:1],7,3-7[8:1]*-1[8:1],3,,,7xp6<7b[2:3]/3xp2>3b[2:3],7x/3x,
E
