&title=Event Horizon
&artist=曲:5u5h1/歌:三角 葵(CV:春野 杏)
&first=0
&lv_5=13
&des_5=Wangzap -reach the future-
&inote_5=(135)
{1},
{1},
{8}4/2V83[4:1],,,,,6/5,{16},7/8,,,
{8}1V38[4:1]/6V47[4:1],,,,,1h[8:1],{16},2h[8:1]/8h[8:1],,,
{8}7h[4:1]/3V15[4:1],,,,,4h[8:1]/6h[8:1],{16},7h[8:1]/3h[8:1],,,
{4}1-5[8:1],7-3[8:1],1-6[8:1]*-4[8:1],1b,
{16}7/3<5[8:1],,2,,38,,7,7,2x,5,4,5,3,6,5,6,
{16}1-5[8:1],,2,,18,,7,7,2x,1,3,8,4,7,5h[8:1],,
{16}6<1[8:1],,7,,46,,3,3,7x,4,5,4,6,3,4,3,8,7,6,5,4,3,2,1,8x-5[8:1]/4x-1[8:1],,37,,48,,,,
{16}2b/6b-4[8:1],,7,,61,,2,2,7x,4,5,4,6,3,4,3,
{16}8p4[8:1],,7,,81,,2,2,7x,8,6,1,5,2,4h[8:1],,
{16}3v8[8:1],,2,,53,,6,6,2x,5,4,5,3,6,5,6,2,1,8,7,6,5,4,3,1x-5[8:1]b/2x-6[8:1]b,,38,,1b/2b,,,,
{16}7h[2:1],,4,,4,,4,,3h[2:1],,,5,,,5,,6h[2:1],,4,,4,,4,,3h[16:3],,,4,3,,5h[16:3],,,4,5,,3,,3,,2>5[8:1],,,5,,,6,,7<5[8:1],,7,,4>2[8:1],,4,,8-4[8:1],,,,18,,,,
{16}2h[2:1],,5,,5,,5,,6h[2:1],,,4,,,4,,3h[2:1],,5,,5,,5,,6h[16:3],,,5,6,,4h[16:3],,,5,4,,6,,6,,7<4[8:1],,,3,,,2-6[8:1],,,,7-4[8:1],,7,,3-8[8:1],,3,,5-1[8:1],,5,,,,
{8}2>4[8:1],,2,1,8>2[8:1],,8,7,6<8[8:1],,6,5,4<6[8:1],4,3,2,
{8}1-7[8:1],,1,2,3-1[8:1],,3,4,5-3[8:1],5,6,7,7-3[8:1],,7x/1x>8[4:1]b,,
{48}D2,A2,D3,A3,D4,A4,D5,A5,D6,A6,D7,A7,{8}D8/E8f/B7/B8,,2x>4[8:1],,21,8,2-5[8:1],1,28,7,2w6[8:1]b,,2<3[4:3],,
{8}C1f,,,,,,,6,6b<8[8:1],,5b-1[8:1],,4b-8[8:1],,3b<6[8:1]b,,
{16}2hb[8:9],,,,,,,,B3/B4/E4f,,,B7f/B8f/E8,,,E6/B6/B5,,,,4b,,,5b/6b,,,4b-1[8:1]/8b-5[8:1],,,,4x/8x,,,,
{16}2b<8[8:1],,3,4,2,,6,,7>2[8:1],,6,,75,,4,,
{16}3-8[8:1],,2,4,3,,5,,7<4[8:1],,6,,78,,1,,
{16}25,,3,4,2,,7,8p4[8:1],,1,,8,2,,3,,3qq8[8:3],,,7,,,6,,5w1[8:1],,,,5x,,,,
{8}3>5[8:3],,5,5<3[8:3],,4,4,,6<4[8:3],,4,4>6[8:3],,5,5,,
{16}4>1[8:1],,3,,45,,7,8-6-1[4:1],,1,,8,2,,3,,4,,6,5,,5,6,,7-4[8:1]/3-8[8:1],,26,,37,,,,
{16}7b>1[8:1],,6,5,7,,3,,2<7[8:1],,3,,24,,5,,
{16}6-1[8:1],,7,5,6,,4,,2>5[8:1],,3,,21,,8,,
{16}74,,6,5,7,,2,1q5[8:1],,8,,1,7,,6,,6pp1[8:3],,,2,,,3,,4w8[8:1],,,,4x,,,,
{8}6<4[8:3],,4,4>6[8:3],,5,5,,3>5[8:3],,5,5<3[8:3],,4,4,,
{16}5<8[8:1],,6,,54,,2,1-3-8[4:1],,8,,1,7,,6,,7,7,2,2,6,6,3,3,{32}5-1[8:1],6,7,8,1,2,3,4,{16}5x<5[8:11]*>5[8:11],,,,
{4}5b,,,,,,,,4,4,6,6,E1,E3,E5,E7,
{4}5/1h[8:1],2h[8:1],3h[8:1],4h[8:1],5h[8:1],6h[8:1],7h[8:1],8h[8:1]/1h[8:1],
{8}2,2,7,7,{16}3,3,6,6,4,4,5,5,{1}Cfh[4:3],
{16}1x/5x<1[16:3],,24,,1,2,3,4,5b-1[12:1]b,,,8b-3[12:1]b,,,4hb[8:3],,,,,,6<8[12:1],5,7,5qq1[2:1],6b,,,5b,,,,,
{16}7-5[12:1],,6,,7,,,,2b,4h[8:1],,3b,5h[8:1],,4b,6h[8:1],,8b,7h[8:1],,1b,6h[8:1],,2,5-7-4>2[8:3],,34,,1hx[4:3]/5x,,,,
{16},,,,,,,,8b-4[12:1]b,,,3b-7[12:1]b,,,6hb[8:3],,,,,,4qq8[8:3],5,3,5,4,,,,A5,D6,A6,D7,A7,,2>5[8:1],1,,1,2-6[8:1],,6-2[8:1],,8w4[8:1]b,,7,,8b>8[4:3],,,,,,,,,,1x>4[8:1],,,,,,,,
{4}C1,,,,C1,,,,
{16}6qq3[8:5]/2h[1:1],,,,,,,,,,,,,,,,,,7,7,3,5,4,6,2,8,1,7,2v5[8:1]b,,,,
{8}2b/6<4[8:3],,4,4>6[8:3]b,,5,5,,3>5[8:3],,5,5<3[8:3]b,,4,4,,
{16}5<8[8:1],,6,,54,,2,1V37[4:1],,8,,7,7,,6,,5,,3,4,,4,3,,2v5[8:1]/6-1[8:1],,73,,62,,,,
{16}2b<8[8:1],,3,4,2,,6,,7>2[8:1],,6,,75,,4,,
{16}3-8[8:1],,2,4,3,,5,,7<4[8:1],,6,,78,,1,,
{16}25,,3,4,2,,7,8V64[16:3],,1,,2,2,,3,,3qq7[8:3],,,7,,,6,,5w1[8:1],,,,5x,,,,
{8}3>5[8:3],,5,5<3[8:3]b,,4,4,,6<4[8:3],,4,4>6[8:3]b,,5,5,,
{16}4>1[8:1],,3,,45,,7,8V61[4:1],,1,,2,2,,3,,2,4,3,5,4,6,5,7,{32}3x,4,5,6,7,8,1,2,3x/6x,5,4,3,2,1,8,7,
{16}2b/6b>4[8:1],,7,,61,,2,2,7x,4,5,4,6,3,4,3,
{16}8-4[8:1],,7,,81,,2,2,7x,8,6,1,5,2,4h[8:1],,
{16}3>8[8:1],,2,,53,,6,6,2x,5,4,5,3,6,5,6,2,3,4,5,1,8,7,6,1x-4[8:1]/5x-8[8:1],,62,,51,,,,
{16}7b/3b-5[8:1],,2,,38,,7,7,2x,5,4,5,3,6,5,6,
{16}1q5[8:1],,2,,18,,7,7,2x,1,3,8,4,7,5h[8:1],,
{16}6v1[8:1],,7,,46,,3,3,7x,4,5,4,6,3,4,3,7,6,5,4,8,1,2,3,5x-1[8:1]b/4x-8[8:1]b,,63,,5b/4b,,,,
{16}7/2q6[12:1],,,,7h[4:1]/2,,,,5b-1[12:1]b,,,8bw4[12:1]b,,,8b,,
E
