&title=solips
&artist=rintaro soma
&first=0
&des=ネギラメン
&lv_6=13
&wholebpm=199
&inote_6=(199)
{1},,,,
{8}
,,,,,,5-1[8:1],,5bp3[4:5]/4bq7[4:5],,,,,,,,,,,,,,,,5q7[4:5]/2q4[4:5],,,,,,,,,,,,,,,,
5p2[4:5]/7p4[4:5],,,,,,,,,,,,,,,,8<8[4:5]*-4[8:5],,,,,,,,,,,,4,4,4h[4:1],,
6,5,4,3h[4:1],4,5,4h[4:1],6,5,4,3h[4:1],4,{16}5h[8:3],,2,3,4h[8:1],,,,
{8}
3/6<4[8:6],,5h[8:8]/6,,,,,,,,{16}6,7,8,1,2,3,4,5,6z2[4:1]/2z6[4:1],,,,,,,,,,,,
{8}
1<5[2:1],2,3,4,5-1[4:1],,,,5>1[2:1],,,,1-5[4:1],,,,8<4[2:1],,,,4-8[4:1],,,,
3,3,3,3,7/3,7/3-7[8:1],,5,5>1[2:1],6,7,8,1-5[4:1],,,,1<5[2:1],,,,
5-1[4:1],4,3,2,2>6[2:1],,,,6V41[2:1],,,,7,7,7,7,7/3,3/7,3V52[8:2]/7V58[8:2],3/7,,
,,,{24}1,2,3,4,5,6,7,8,1,2-6[16:1]/6,,,,,,5b,,,,,,,,,
{8}8<4[8:3],,,4>8[8:3],,,8<4[8:3],,,4-8[8:3],,,8<6[4:1],1,2,
3-7[8:3],3,,7<5[8:2],8,1,1-5[8:3],,,5<7[8:2],4,3,2,1,8,7,7,7>2[16:3],1>4[16:3],3<6[16:3],5<5[8:5]*<5[8:5],,,,,,,1h[8:1],,
3/7b-4[8:1],,7,1-5[8:1],,1,8,7,6-1[8:1],6,5,,4-1[8:1],4,5V71[4:1],,1v6[4:1],,,
2,,3h[4:1],,{16}4,5,6v1[8:1]/4v1[8:1],,,,,,,,3/7,,4/6,,5,,,,
{8}2-5[8:1],,2,8-4[8:1],,8,1,2,3-8[8:1],3,4,,5-8[8:1],5,4V28[4:1],,
8v3[4:1],,,4,4,5,6,7h[4:1],{16}6-8[8:1],5,4-2[8:1],,6,,4z8[4:1],,,,,,,,,,
7h[4:1],,,,,,,,,,,,,,,,7h[4:1]/5h[4:1],,,,,,,,,,,,,,,,7h[4:1]/3h[4:1],,,,,,,,,,,,
7,8,7,8,1h[8:1]/7h[8:1],,,6h[8:1]/2h[8:1],,,3/5,,6h[8:1]/4h[8:1],,,3h[8:1]/7h[8:1],,,2/8,,1<6[8:1]/8,,,,1,,5-1[8:1],,,,4/5,,2-5[8:1],,,,2/8<4[16:3],,,,
3,2,1,8>3[8:1],,,,4,5,6,7,8,1-6[8:1]/5-2[8:1],,,,1/5,,,,1/5<8[8:1],,,,
1,2,3,4,5/1,6,7,8,1,2,3,4,1<6[8:1]/5>2[8:1],,,,1/5,,,,
1b-5[16:1],,,4b-7[16:1],,,2b-6[16:1],,,,8,,8b-3[16:1],,,5b-1[16:1],,,
7b-4[16:1],,,,1,,1,5,1,6,1,7,1,8,1b<6[16:1],,,5b-8[16:1],,,4b-1[16:1],,,,6,,
6b-2[16:1],,,8b-5[16:1],,,1b-4[16:1],,,,,,{12}7,7,5,6,6,4,
{16}5bq1[16:1],,,3b<6[16:1],,,7bv4[16:1],,,,2,,2bv7[16:1],,,4bq8[16:1],,,1b>4[16:1],,,,7,,7,6,7,5,7,4,7,3,6,2,7,3,6,2,7,3,6,2,7,3,8,4,1,5h[16:8],2h[16:7],,,,,,,,
{24}4/1,3/8,2/7,6/1,8/5,7,6,5,4,3q6[1:4],2p7[1:4],1,
{1}8b,,,,,,,
{8},,,,8b,,,,
2h[4:1],4h[4:1],,3h[8:6],5h[8:8],,,,,,3,,4,3h[8:3]/5,,,
7h[4:1],5h[4:1],,6h[4:1],4h[4:1],,5h[4:1],3,2h[8:3],,,4h[8:3],,,5h[4:1],,
6h[4:1],4h[4:1],,5h[8:6],3h[8:8],,,,,,5,,4,3/5h[8:3],,,
2h[4:1],4h[4:1],,3h[4:1],5h[4:1],,3,4,6,5,3,4,6,5,3,4,
5p3[4:5]/6p3[4:5],,,,,,,,,,,,,,,,3p8[4:5]/2p7[4:5],,,,,,,,,,,,,,,,
5p2[4:5]/4q7[4:5],,,,,,,,,,,,,,,,
{16}
3h[8:1]/4h[8:1],,,,3,4,2,,
2h[8:1]/1h[8:1],,,,1,2,8,,
7h[8:1]/8h[8:1],,,,7,8,6,,
5h[8:1]/6h[8:1],,,,6,5,7,,
2,1,2,1,2,1,2,1,
{32}2,3,4,5,6,7,8,1,2,3,4,5,6,7,8,1,
{16}2/6,,,,,,4,5,3bV58[8:1]/6bV41[8:1],,,,,,,,
2-5[8:1],,,,1<6[8:1]/2,,,,5-8[8:1],4,3-6[8:1],,5,,3,,7-3[8:1],,5,,7,,2,,
1-5[8:1],,4,,1,,6,,7-4[8:1]/8,,,,7/8,,,,1-5[8:1],2,3-8[8:1],,1,,3,,
4-7[8:1],,4,,8,,1,,2h[4:1],,{32}1b,8,7,6,,,,,1b,2,3,4,
{16}8,6,8,6,8,,2,4,2,4,2,,
3-8[8:1],,5,,3,,7-3[8:1],,1,,7,,8-4[8:1],,1-5[8:1],,8,,1,,
6-1[8:1],,,,6/5,,4-1[8:1],,8-5[8:1],,4,,8,,2-7[8:1]*-5[8:1],,,,2,,,,
8/4-1[8:1],,4/8,,,,,,,,
7-4[8:1],,,,8>3[8:1]/7,,,,4-1[8:1],5,6-3[8:1],,4,,6,,2-6[8:1],,4,,2,,7,,
8-4[8:1],,5,,8,,3,,2-5[8:1],,,,2/1,,,,{24}7,6,5,4,1,2,3,4,8,7,6,5,
{16}4h[8:1]/8b,,,1h[8:1]/5b,,,2b/6,,3h[8:1]/7b,,,8h[8:1]/4b,,,1b/5b,,
2-6[8:1],,4,,2,,5-2[8:1],,5-8[8:1],,5-1[8:1],,,,,,7-3[8:1],,1,,7,,8,,4-8[8:1],,
1,,2/4,,3,,4<7[8:1],,,,8,,1>4[8:1],,,,5,,6-2[8:1],,7,,8,,1-5[8:1],,2,,3,,
4w8[8:1],,,,4,,,,
2b>5[16:3]/6b,,,5<8[16:3],,,8>3[16:3],,,,,,
6>3[16:3],,,3>8[16:3],,,8<5[16:3],,,,,,2,,2,3,4,,
7,6,5>2[16:3],,,2<7[16:3],,,7<4[16:3],,,,,,
1>4[16:3],,,4<7[16:3],,,7>2[16:3],,,,,,4,,4,5,6,,
1,2,3-8[16:3],,,8-5[16:3],,,5-2[16:3],,5,,,,
6-1[16:3],,,1-4[16:3],,,4-8[16:3],,4,,,,
1,,1,2,3,,5,6,7q4[16:3],,,4<7[16:3],,,3,,3,,2,,2<7[16:3],,,
7p1[16:3],,,4,,5,,6,,7,,8/7,,{32}1b/6,2,3,4,5,6,7,8,
{8}
1-5[8:1],6-2[8:1],1,6,4-1[8:1],8-5[8:1],4,8,
2-6[8:1],4-8[8:1],2,4,5-2[8:1],1-6[8:1],5,1,
3v5[8:1],7v1[8:1],3,7,4-2[8:1],8-6[8:1],4,8,
1-5[8:1],5,1,6,7/8,{32}7,6,5,4,,,,1,2,3,4,,
{16}
8,6,8,6,8,7,8,1,8,2,8,3,
7,3,7,4,7,5,7,6,7,8,7,1,
6,1,6,2,6,3,6,4,
5,5,5,5,5,5,5,5,5,5,
6,4,6,4,3,7,3,7,2,8,2,8,
1b,1,1b,1,1b,1,1b,1,1b,1,
{32}1b,2,3,4,5,6,7,8,1,2,3,4,5,6,7,8,
{16}1bp8[16:69]/5b,,,,,,,,,,,,,,,,,,,,,,,,,,,,,
3,6,4,5,4,5,4,5,3,6,3,6,3,6,4,5,3,6,4,5,3,6,4,5,3,4,3,5,3,
{24}6b,4,6,4,6-1[16:1],4,6,4,6,4,6,
{8}
