&title=Sargasso
&artist=Aoi
&first=0
&des=114x Pure y x+y
&lv_5=14+
&inote_5=(175){4},,,,{32}1b/8b,
2/7,3/6h[16:27],4z8[32:45],{1},{4},,,{16},,{1}3h[2:1]/1<3[4:3],
1s5[4:3],
{4}7-5[8:1],5-3[8:1],8-4[8:1],4-2[8:1],
1-5-7[4:1],3,2V46[4:1],8,
{16}7hx[16:3],,,6hx[16:3],,,{8}5hx[16:3],{16},4hx[16:3],,,{4}8b,
{16}2,3,4,7,6,5,1,2,3,8,7,6,4,4,5,5,
{8}3b-1-7-5b[2:1],,,5,6x-2[8:1],,,4,
{16}3b-5-7-1b[2:1],,,8,,,{8}6,4x-8[8:1],,,2,
3b-1-5-7b[2:1],,,6,8x-4[7:1],,,2,
3bh[8:1],{32}E8,E7,E6,E5,{8}2bh[8:1],{32}A8,A7,A6,A5,{16}1b/4x,,,3b/6x,,,{8}8x/5b,
{16}6h[8:1]/7h[16:1],,,5h[8:1]/6h[16:1],,,{8}4h[8:1]/5h[16:1],{16},3h[8:1]/4h[16:1],,,2h[8:1]/3h[16:1],,,1h[8:1]/2h[16:1],
,,{8}8bh[8:1]/1h[16:1],{16},7bh[8:1]/8h[16:1],,,1bh[8:1]/6h[16:1],,,2bh[8:1]/5h[16:1],,,4,4,
2,2,5,5,3,3,7,7,{32}3,4,{16}5,8,{32}2,3,{16}4,7,{32}1,2,3,4,
{8}1bhx[8:5]/5bh[2:1],{32},,,,,,,,,,,,,,,,E4f,E3,{16}E2,,,,,{4}2h[8:1]/5h[8:1],
4h[8:1]/7h[8:1],3h[8:1]/5h[8:1],6h[8:1]/4-1V35-2b[2:1],
A4f/Ch[2:1],{16},,,,,,,,1h[128:1],8h[128:1],1h[128:1],8h[128:1],
{8}2-5[8:1],1,{16}2,6,,7,{8}7h[8:1],5h[8:1],4h[8:1],2h[8:1],
7-4[8:1],8,{16}7,2,,3,{8}3h[8:1],4h[8:1],5h[8:1],6h[8:1],
2>3<4<5b[8:1],8bh[8:1],{16}2,7,,7,{8}1h[8:1],6h[8:1],3h[8:1],8h[8:1],
2b,{16}3,4,{8}2/5,{16}6,5/7,,2/4,,1/8,{4}2b/7b,
{48}6bx/A3,D4,A4,D5,A5,D6,A6,D7,A7,D8,A8,D1,{4}1x-4-2[4:1],{32}7x,6x,{16}5x,{32},,6x,7x,{4}8x-5-7[4:1],
{32}2x,3x,{16}4x,{32},,3x,2x,{4}1x-5-1b[4:1],{32}8x,7x,{16}6x,{32},,4x,3,{4}2x,
{32}2x,B3,B4,E5,{16}5hx[4:1],6,,,{8}8,{32}7x,B6,B5,E5,{16}4hx[4:1],3,,,{8}1,
E3,E4,E6,E7,{4}1w5[8:1],1,
{8}1-5[8:1],8,1,{16}E6,E7,{8}4h[8:1]/E8,3h[8:1],2h[8:1],1h[8:1],
{16}8,1,8,1,7,2,7,2,{8}6V82[8:1],2<6[8:1],{32},,,,,,,,E1,
B1,B2,B3,{8}E4/4x-8[16:1],5,6,7,1-5[16:1],8,1,
{32}8b/4h[8:1],7,{16}6,{32},,7b/2h[8:1],6,{8}5,{32}1b/8h[8:1],2,{16}3,{32},,2b/7h[8:1],3,{8}4,{32}1/8b,7/2b,3/6b,5/4b,,,,,{4}B8/B7/E1/B2/B1,
{16}6/5x,4,3,2,{6}1b-5[16:1],1b/7b-4[48:1],7b/2b-6[12:1],
{12},2b,{24},,{8}E7,E8,E1,C,E5,E3/E7,
{16}4,5,3,6,2,7,1,8,3,4,2,5,1,6,8,7,
{32}8,1,2,3,4,5,6,7,8,1,2,3,{8}4/Cfh[8:3],{16},,,,,,,,3,
4,2,6,5,7,3,4,1,6,5,8,3,5,{8}1h[4:1],
{32}8,7,6,5h[32:5],,,,,
{16}1,7,1,6,1,5,1,4,1,3,1,8,
1bx,2,3,2x,3,4,3x,4,5,4x,5,6,{8}7h[8:1],2h[8:1],
{32}7,6,5,4h[32:5],,,,,
{16}2,1,3,8,1,6,2,7,{8}6bx/3bx,5b/4b,
{16}3x,4,B2,6x,5,B7,2x,4,B1,7x,5,B8,{8}1,7/2,
{16}1,2,3,8/4,7,6,2/5,3,4,7/5,6,5,{8}4/1b,{32}2b/8b,,,,
{16}4,3,2,5,6,7,1,8,1,7,8,7,{4}1-5-1[4:1],
,8-6[8:1]*-5[8:1],8-3[8:1]*-2[8:1],8b,
{16}4,5,3,6,2,7,1,8,1,8,1,8,1,8,1,8,
1,1,1,1,1,1,1,1,1,1,1,1,{32}1b,2x/8x,3x/7x,4x/6x,{8}5x,
{16}3,5,3,6,4,6,3,4,3,6,5,6,{8}7b/4b,2b/8b,
{16}1,1,2,2,3,3,4,4,5,5,6,6,7,7,8,8,
{16}1-3[8:1],,7,7,1-5[8:1],,6,,1>4[8:1],7,6,,1b/7-3[8:1],,8b,,
{16}7<4[8:1],,1,,7/2,1,8,7,6,5,4,3,2b/6b,,1b/7b,,
{16}8,7,1,6,2,5,3,4,2,5,1,6,{8}7b/8b,8b/7b,
1-3[8:1],1-5[8:1],1-4[8:1],1-7[8:1],1-5[8:1],1-6[8:1],1bx>1[4:15],A1f,,,{1},,{4},,,,,Ch[4:1],,{8}B1,
B7,B3,B5,B2,B8,B4,B6,
E5,C,E1,D8/E8/E2/D2,,C,,E6/D6/D4/E4,
,B6,B3,B7,B2,E8,E2,E6,
E5,C,E1,A8/E8/A1/E2,,C,,D5/E5/B5/B4,
3,3,3,3,4,4,4,4,
5,5,5,5,6,6,6,6,
7,7,7/C,7,8,8,8/C,8,
1,1,1/C,1,2,2,2/C,2,
{4}3h[8:7],{16}E1,,,,E5,,,,5,6,{8}7h[8:8],
{16}E2,,,,E6,,,,E4,,,,3,2,{8}1h[8:11],
{16}E3,,,,E7,,,,E1,,,,7,6,{8}5h[2:1],
,,,,,,{4}Cf,
{16}1bh[8:1]/5h[8:1],,,6bh[8:1]/2h[8:1],,,{8}3bh[8:1]/7h[8:1],{16},8bh[8:1]/4h[8:1],,,{4}5b,
{16}5bh[8:1]/1bh[8:1],,,4bh[8:1]/8bh[8:1],,,{8}7b-3[8:1],{2}3b-7b[8:1],
{32}
4,5,4,5,,,,,6,5,6,5,,,,,3,4,3,4,,,7,8,7,8,,,2,1,2,1,
{4}
Cf,,,,
{1}4h[4:7]/5h[4:7]/2?-6[1.3714##0.0429]*-6[1.3714##0.0143],
{6}2?p6[0.2263##0]/2?q6[0.2263##0],2?-6b[0.2263##0],,{2}2?p2b[384:1]/6?p6b[384:1],
{8}8/2-5[8:1],1,2/7,8,7/1>4[8:1],{16}2,8,1-5[8:1],7,{8}7,
1-3[8:1],{16}7,6,1-5[8:1],7,6,5,1,8,7,6,4x,3,2,1,
{8}8/6x<1[8:1],2x>5[8:1],6-2[8:1],2,6,{16}3x,4,5/1x,8,{8}7h[8:3],
{4}2,{16}1hx[128:1],3x,5x/8,7,6/1hx[128:1],3x,5x/8,7,{4}6bx/1b,
{8}1/7-4[8:1],8,2/7,1,1/8<5[8:1],{16}7,1,8-4[8:1],2,{8}2,
8-6[8:1],{16}2,3,8-4[8:1],2,3,4,8,1,2,3,5x,6,7,8,
2-6[8:1],1,2,3,{8}2,{16}7-3[8:1],8,7,6,{8}7,{16}2,1,2,1,
{8}2,{24}2,3,4,{8}5b/6,{24}7,6,5,{8}4b/3,2/8,1b,1b,
7/5,4/5,4/2-5[8:1],{16}3,1,2,8,7,6,4x,3,{8}2h[4:1],
,6,{16}7/1h,3,{8}57,{16}2/8h,6,{8}24,{16}1,8,2,7,
{8}3x/6x>3[8:1],2,6/3-7>2[8:3],2,1,2,{16}3b,4b,{8}5b-2[8:1]*-8[8:1],
,5b,,1bxs5[8:1]*-4[8:1],,1b,,2b/7b,
4/5,3/6,{16}1,8,{8}1,{16}1h[128:1],3x,5x/8xw4b[8:1],6x,{8}4x/1b,8b,
,1/7,{16}4,5,2,1,5,6,{8}4h[8:1],{16}6,5,7,8,
4,3,1,2,{8}7h[8:1],{32}1,2,3,4,8,7,6,5,1,2,3,4,5bx,4x/6x,3x/7x,2x/8x,{8}1bh[8:3],
,E1,C,E5,,E8/E2,E7/E3,E6/E4,
{4}4x/5x,{16}1b,6,3,6,1b,6,3,6,1b,7,2b,6,
3b,5,1,6,3b,5,1,6,3b,5,{8}3,4x/6,3/7x,
2x/8,3/5x,{16}7b,2,5,2,7b,2,5,2,7b,2,6b,3,
{8}4x/5x,{16}3,4,{8}2/5,{16}6,5/7,,2/4,,1/8,{4}2b/7b,
{16}3,6,3,6,3,6,3,6,{24}2,1,8,7,6,5,{8}4/7x,{24}7,8,1,
2,3,4,5/2x,,,1,8,7,6,5,4,{4}3h[8:1]/6xh[8:1],{8}4/5,2/6,
{24}1xv6[8:1],8,7,6,5,4,{8}3/1,{24}2x,1,8,7,6,5,4/8,,,2,6,2,6,2,6,
{8}1b,{32}1b,2/8,3/7,4/6,{8}5b,2/8,3b/4b,7b/8b,5b/1bpp1[4:1],4b/6b,
{1}1x>2-4<5-7>8-5>4-1[4:11],
E
