&title=のだ (クリスマスVer.)
&artist=大漠波新
&first=0
&des=Holinanoda
&clock_count=4
&lv_5=11+
&inote_5=(135)
{4}
,,,,
{96},
{32}
2h[8:2]/4h[8:2],,,,,,,,
,,,,,,,,
7h[8:2]/5h[8:2],,,,,,,,
,,,,,,,,
5bh[8:6]/4,,,,,,3,,
,,,,2,,,,
1b-6<3[8:3]b,,,,,,,,
1b,,,,,,,,
{16}
5,,,,6,,2>5[16:2],8,
,7,2,,6bpp5[4:1]b,,6,,
4bqq5[4:1]b,,,4,,,7,,
8b,,,,8b>3[16:2],7,6,5-1[16:2],
8b,,,5,,,4,,
7-4-6-1[16:5]/4,,,3/7,,,2,,
2-7-3-8[8:3],,,6/2,,,6,,
5bx-1[8:1],,,,5bw1b[8:1],,3,,
5,,,,7/3,,7-3[8:1],1,
,2,7-5[8:1],,4,,7x,,
4h[16:3],,,6h[16:3],,,2h[16:2],,
8bhx[16:4],,,,Cf,,,,
6hx[4:1]/1x-5[8:1],,,,1,,7,7,
,4,6,3,5>2[8:1],,6,,
7h[4:1]/5,,,,,,2,2,
,5,3,6,4<7[8:1],,3,,
2h[4:1]/4,,,,,,7,7,
,1,7,2,8>3[8:1],,7,,
6h[4:1]/8,,,,,,3,3,
,5h[16:3],,,1x-5[8:1],2x/6x,3x/7x,4x/8x,
1x,,,,2hx[8:1],,7,7,
,1,7,2,8>3[8:1],,7,,
6h[4:1]/8,,,,,,3,3,
,8,2,7,1<6[8:1],,2,,
3h[4:1]/1,,,,,,6,6,
,4,5,3,6h[8:1],,4,,
{32}
2/8,,,,,,3/7,,
,,,,6/4,,,,
{16}
6bxpp5[8:18]b/4bxqq5[8:18]b,,,,,,,,
,,,,,,,,
,,,,,,,,
,,,,,,,,
,,,,,,,,
,,,,,,,,
,,,,,,,,
{16}
4bxV61-5b[8:6]/6bxV41-5b[8:6],,,,
,,,,,,,,
,,,,,,,,E
