&title=愛して愛して愛して
&artist=きくお
&first=0.03
&des=Who used to love you
&lv_5=14+
&inote_5=(230)
{4},,,
{4},,,
{4},,,
{4},,,
{4},,,
{4}C,,,C,,,
{4}C/3,3,3-7b[8:1],8b,,,
{4}6h[4:1],5h[4:1],4h[4:3],5,5,5,
{4}3h[4:1],4h[4:1],5h[4:3],4,4,4,
{4}3<2[2:1],,,6>7[2:1],,,
{12}4,,4,7,,4,7,,,3/6,,5,2,,5,2,,,
{4}1h[4:1]/4,6-1[8:1],4,2h[4:1],8-3[8:1],6,
{4}5h[4:1],4-7[8:1],2,1h[4:1],5-2[8:1],7,
{4}8-4[8:1],1/8,3,1-5[8:1],1/8,6,
{4}4/7,2/5,1/8,3b-5s1[8:3]/6b-4z8[8:3],,,
{12}7x,2,7,2,7,2,7,2,7,2,7,2,7,2,7,2,7,2,
{12}8,1,8,1,8,1,8,1,8,{24}1b,2,3,4,5,6,7,8,1,2,3,4,5-1[8:1],6,7,8,1,2,
{4}3x,,,4,3,2,
{4}4,3,2,4,3,2,
{4}4h[2:1],3,2,4h[2:1],3,2,
{4}4q6[2:1]/3,,,2,2h[4:1],,
{4}2/B4h[4:3]/A4h[4:3]/E4h[4:3],2-6[8:1],,B7h[2:1]/A7h[2:1]/E7h[2:1],,4x,
{4}5x/B1h[4:3]/A1h[4:3]/E2h[4:3],6-2[8:1],,B4h[2:1]/A4h[2:1]/E4h[2:1],,8x,
{12}1/8,,2,8h[4:1],,,1,,,4/5,,6,4h[4:1],,,5,,,
{12}3/7,,4,6,,2,8,,,1h[24:13]/7,,,{24}2,3,4,5,6,7,8-4b[8:1],,2,3,4,5,
{4}6x,,,5,6,7,
{4}5,6,7,5,6,7,
{4}5h[2:1],6,7,5h[2:1],6,7,
{4}5p3[2:1]/6,,,7,7h[4:1],,
{4}7/B5h[4:3]/A5h[4:3]/E6h[4:3],7-3[8:1],,B2h[2:1]/A2h[2:1]/E3h[2:1],,5x,
{4}4x/B8h[4:3]/A8h[4:3]/E8h[4:3],3-7[8:1],,B5h[2:1]/A5h[2:1]/E6h[2:1],,1x,
{12}B4h[4:1]/8x,1x,2x,B5h[4:1]/1x,8x,7x,B4h[4:1]/8x,1x,2x,B5h[4:1]/1x,8x,7x,B4h[4:1]/8x,1x,2x,B5h[4:1]/1x,8x,7x,
{12}B4/8x,1x,2x,B5/1x,8x,7x,B4/8x,1x,2x,B5/1xb,,,,,,1/2,,,
{4}2h[2:1]/8,3,3,2/8h[2:1],6,6,
{12}2h[1:1]/8,,,E1,E2,E3,E4,E5,E6,E7,E8,E1,E2,,,3-1[8:1]/8-3[8:1],,,
{4}3/8>4[4:1],,1-5[8:1]*-6[8:1],1,,7h[4:1],
{4}6h[4:1],7h[4:1],5pp5[2:1]*qq5[2:1],,,,
{4}7h[2:1]/1,6,6,7/1h[2:1],3,3,
{12}7h[1:1]/1,,,E1,E8,E7,E6,E5,E4,E3,E2,E1,E8,,,6-8[8:1]/1-6[8:1],,,
{4}6/1<5[4:1],,8-4[8:1]*-3[8:1],8,,2,
{4}2h[4:1]/7h[4:1],,1h[4:1],8,{12}2,8,2,1,1,1,
{12}3,,,3/7,,,3/7,,4,6,,,4/6,,4,6,,5,
{12}2,4,3,7,5,6,2,4,3,7h[6:1],,1h[4:1],,,7,1,,7,
{12}B2h[4:1],,6,B3h[4:1],,6,B2h[4:1],,,7,6,5,4,3,2,8x/1,,,
{12}7/B3h[4:1],,8,B4h[4:1],,8,B3h[4:1],,,8,1,2,3,4,5,6/1,,,
{12}2/B6h[4:1],,1,B5h[4:1],,1,B6h[4:1],,,1,8,7,6,5,4,3/8,,,
{4}1qq8[4:1]/2pp3[4:1],,,1qq2[4:1]/2pp1[4:1],,,
{12}B7h[4:1],,3,B6h[4:1],,3,B7h[4:1],,,2,3,4,5,6,7,1x/8,,,
{12}B6h[4:1],,2,B7h[4:1],,2,B6h[4:1],,,3b,2,1,8,7,6,5,4,3,
{4}2h[4:1],1h[4:1],8h[4:1],7h[4:1],{12}6h[4:1],,7,7,,,
{12}5h[4:1]/8h[4:1],,,,,1,4>5[2:1],,,4/1<5b[4:1],,,,,,,,,
{4}7h[2:1]/A3h[4:1],A4h[4:1],A3h[4:1],{12}7,6,5,3,2,1,7,,,
{4}2h[2:1]/A6h[4:1],A5h[4:1],A6h[4:1],{12}2,3,4,6,7,8,2,,,
{4}{4}7h[2:1]/A3h[4:1],A4h[4:1],A3h[4:1],{12}7,6,5,4/3,2,1,7/8,,,
{4}2x/8x,1xs5[8:1]/7x,1b/8b,7x/1x,8xz4b[8:1]/2x,8b/1b,
{12}3x,4,2,6,5,7,3,5,2,6,4,7,4,6,1,5,3,8,
{12}2x,1,3,7,8,6,3,7,1,6,2,8,3,5,8,6,4,1,
{12}2x-4[8:1],,8,2x,,,1/2x-4[8:1],,8,2x,,,1/2x-4[8:1],,8,2x,,,
{12}2x-5[8:1],,7,2x,,,8/2x-5[8:1],,7,2x,,,8/2x-5[8:1],,7,2x,,,
{24}2xbqq7<6qq3>2[2:5],1xb/3xb,8xb/4xb,7xb/5xb,,,{4},,,,,
{4},,,,,,
{4}6,6h[4:1],4,6/4,6h[6:1],4,
{8}6/4h[2:1],,,{24}E2,E1,E8,{4}E7,3/5,{12}5,,5,3,,,
{4}2/4h[4:5],{16}E2,E1,E8,E7,E6,,,,5x,,,,E5,E6,E7,E8,E1,,,,
{12}2/4,,2,4,,4,6,,6,8h[4:1],,,4,8,4,8,,,
{4}6/5h[4:5],{16}E7,E8,E1,E2,E3,,,,3x,,,,E4,E3,E2,E1,E8,,,,
{12}7/5,,7,5,,5,3,,3,1h[4:1],,,5,1,5,1,,,
{4}3v8[8:1]/4h[2:1],,1x-6-8-3[2:1],E5h[4:1],B5h[4:1],B6,
{4}4h[2:1]/7v2[8:1],,1x-5-7-4[2:1],E4h[4:1],B3h[4:1],B2,
{4}1h[2:1]/5v2[8:1],,3x-6-2-5[2:1],E1h[4:1],B8h[4:1],B7,
{4}6h[2:1]/8xv5[8:1],,4xh[2:1],{12}2,1,8,7,6,5,4/1,2,3,
{12}7b,4,5,2,5,4,8,7,6,5b,3,7,4,6,2,8,7,6,
{12}1b,6,3,8,2,7,1,2,3,4b,6,2,5,3,7,1,2,3,
{12}7xb-5[8:1],,1,7x,,,8b/7x-5[8:1],,1,7x,,,8b/7x-5[8:1],,1,7x,,,
{12}7xb-4[8:1],,2,7x,,,1b/7x-4[8:1],,2,7x,,,1b/7x-4[8:1],,2,7x,,,
{24}7xbpp4>2qq5<7b[2:5],8xb/6xb,1xb/5xb,2xb/4xb,,,{4},,,,,
{4},,,,,,
{4}3h[4:1],4h[4:1],5h[6:1],6h[4:1],7h[6:1],8h[6:1],
{4}1h[6:1],2h[6:1],3h[4:1],{12}E5,E6,E7,E8,E1,E2,E3,,,
{4}6,6,6-3[8:1],6/A1h[4:21],,,
{4}2,2,2v7[8:1],2/D1h[4:15],,,
{4}6,6,6>3[8:1],6/A8h[4:9],,{12}E7,E6,E5,
{12}E4,,,,,,E6,E5,E4,E3,,,,,,{24}E3,B3,B4,B5,B6,E7,Cf,
