&title=月光
&artist=キタニタツヤ × はるまきごはん
&first=0
&des=Tail_R
&lv_5=13+
&inote_5=(109)
{1},
{24}4>6[4:1],,,,,,E5/B5,,,,,,5-1[8:1],,,5,,,1,,,,,,
{24}3qq5[4:1],,,,,,E7/B6,,,,,,7-3[8:1],,,7,,,3,,,,,,
{24}2-5V38[4:1],,,,,,A6/E6,,,,,,6-1[8:1],,,6,,,1,,,,,,
{24}3x^6[8:1]*q7[8:1],,,,,,,,,,,,5v3-1[32:5],,,7/8,,,,,,,,,
{24}5V71[16:3],,,,,,B3/E3,,,,,,2x-5[8:1],,,4/6,,,8h[4:1],,,,,,
{24}4v2[8:1],,,,,,E7/B7,,,,,,7x^4[8:1],,,5/3,,,1h[4:1],,,,,,
{24}5-1[8:1],,,,,,B2/E3,,,,,,2x-6[8:1],,,8x-4[8:1],,,2x,,,8x,,,
{24}1xq5[8:1]*>4[8:1],,,,,,,,,,,,8/6,,,3/4,,,2,,2,8,,8,
{24}3x,,3,4,,4,5bh[4:1],,,E1/B8,,,6,,6,4,,4,5,,5,3h[8:1],,,
{24}7,,7,8,,8,1h[4:1],,,E5/B4,,,3,,3,5,,5,4,,4,6,,,
{24}1xh[4:1]/7x,,,E5/B4,,,6h[4:1],,,E1/B1,,,3h[4:1],,,E5/B4,,,6xh[12:1],,4,5,,3,
{24}4h[8:1],,,3,5,4,6h[8:1],,,3,5,4,6h[8:1],,,3,5,4,6h[8:1],,,E1/B8,,,
{24}2x,,2,4,,4,5bh[4:1],,,E3/B3,,,7,,7,4,,4,5,,5,2h[8:1],,,
{24}6,,6,8,,8,1h[4:1],,,E7/B6,,,2,,2,4,,4,5,,5,7,,,
{24}8hx[4:1]/2x,,,E5/B5,,,3h[4:1],,,E1/B8,,,6h[4:1],,,E5/B5,,,3xh[12:1],,5,4,,6,
{8}5bx<4qq5[8:6],,,,,8x,7x,6x,
{8}6^3[4:1],,B1/E1,,2q5[4:1],2,5,,
{8}6^3[4:1],,B1/E1,,2bxpp6[8:3],,,,
{2}5<3[8:3],5V71-3[8:3],
{24}5x,,,6x,,,7x-3b[12:1],,,1/8,,,7bx,,,,,2-4[12:1],4,,1^7[12:1],5,,2bx,
{24},,1x,,,2^8[12:1],6,,3-5[12:1],5,,2x,,,3x,,,1,6,,3,4,,2,
{24}5,,8,7,,1,8,,2,1,,3,2h[4:1],,,,,4,4-8[8:1],,,3/5,,,
{24}4qq5[16:3],,,5,,6,6,,,7,,,7pp4[16:3],,,4,,3,3,,,2,,,
{24}1^3[12:1],,,7/8,,,1^7[12:1]*-5b[12:1],,,4,,,1,,,,,7-5[12:1],5,,8^2[12:1],4,,7bx,
{24},,8x,,,7^1[12:1],3,,6-4[12:1],4,,7x,,,6x,,,8,3,,6,5,,7,
{24}4,,1,2,,8,1,,7,8,,6,7-4[24:2],,,1/8,,,4,3,2,1,,,
{24}8/4,,,2/6,,,3,,3,4,,4,5qq2[4:1],,6,6,,,7,,,8,,,
{24}1,,1,3,,3,4,,4,6,,6,8h[24:5],,,,,1-3[12:1],7,,4-6[12:1],5,,1bx,
{24},,4x,,,4-2[12:1],5,,1-7[12:1],8,,4x,,,1x,,,2,4,,3,5,,4,
{24}6,,5,7,,1,8,,2,1,,3,4,,2,5,,1-3[12:1],7,,6,6,,1x-7[12:1],
{24},,5,5,,1x-5[12:1],,,4,4,,1xpp8[24:7],,,,4/6,,,A7f/B7/E7,,,,,,
{8}5V72[4:1],,2bV84[4:1],,4,3,2h[4:1],,
{8}3V58[4:1],,8V26[4:1],,4,3,3h[4:1],,
{8}5V71[4:1],,1,2,3h[2:1],4,5,6,
{8}7<3[4:1],,3<7[4:1],,1,1,2,3,
{8}4V27[4:1],,7bV15[4:1],,5,6,7h[4:1],,
{8}6V41[4:1],,1V73[4:1],,5,6,6h[4:1],,
{8}4V28[4:1],,8V24[4:1],,5,5,6,6,
{8}7-4[8:1],8,1-6[8:1],2,3-8[8:1],4,5<4[4:9],6,
{1}Cf,
{1},
{1}4>5[1:2],
{1},
{1}5<4[1:2],
{1},
{1}4>6[4:6]*p6[4:6],
{1},
{2}3h[2:1],4h[2:1],
{8}5h[4:1],,E6,,E7,,E8,,
{2}1-4[4:1],8-5[4:1],
{1}3^6^3[2:1],
{2}2-5[4:1],8-4[4:1],
{8}2>6>2[2:1],,E5,,E7,,E1,,
{2}5-8[4:1],4-1[4:1],
{24}6,,,4/5,,,3,,2,1,,,8h[24:5]/3,,,,,2-5[12:1],1,,4-8[12:1],5,,2bx,
{24},,4x,,,1>4[12:1],7,,5^8[12:1],6,,1x,,,5x,,,4,8,,2,6,,1,
{24}7,,3,5,,2,1,,3,4,,8,7h[4:1],,,,,3,3^6[12:1],,,1/8,,,
{24}3qq2-4[4:1],,,8,,7,7,,,6,,,5pp6-4[4:1],,,4,,3,3,,,2,,,
{24}1^4[12:1],,,4,,8,1^6[12:1]*-5b[12:1],,,5,,2,1x,,,,,3-8[12:1],4,,1-5[12:1],8,,3bx,
{24},,1x,,,4-7[12:1],6,,1^6[12:1],8,,4x,,,1x,,,4,5,,3,4,,2,
{24}1,,5,6,,8,7,,1,6,,3,4^1[12:1],,,6/7,,,1,8,7,6,,,
{24}1/5,,,3/7,,,2,,2,4,,4,6qq3[4:1],,7,7,,,8,,,8,,,
{24}1,,1,4,,4,1,,1,6,,6,1h[24:5],,,,,2-6[12:1],8,,4^1[12:1],5,,2bx,
{24},,4x,,,5^2[12:1],6,,8-4[12:1],7,,5x,,,8x,,,1,5,,3,7,,2,
{24}6,,4,8,,3,5,,4,6,,5,7,,6,8,,1-6[12:1],7,,6,6,,1x^4[12:1],
{24},,4,4,,1x-5[12:1],,,5,5,,1pp8<1b[2:1],,,,4/6,,,,,,,,,
{24},,,,,,7hbx[24:7],,,,,,,3,4,2,6,5,7,1,8,4,5,3,
{24},,,8q6b[8:11],,,,,,,,,,5b>1[1:1],,,,,,,,,,,
&inote_6=(109)
{1},
{24}4>6[4:1],,,,,,E5/B5,,,,,,5-1[8:1],,,5,,,1,,,,,,
{24}3qq5[4:1],,,,,,E7/B6,,,,,,7-3[8:1],,,7,,,3,,,,,,
{24}2-5V38[4:1],,,,,,A6/E6,,,,,,6-1[8:1],,,6,,,1,,,,,,
{24}3x^6[8:1]*q7[8:1],,,,,,,,,,,,5v3-1[32:5],,,7/8,,,,,,,,,
{24}5<1[8:1],,,5,,,4,,,3,,2,2-5[8:1],,,4/6,,,8h[4:1],,,,,,
{24}4v2[8:1],,,4,,,5,,,6,,7,7^4[8:1],,,5/3,,,1h[4:1],,,,,,
{24}5-1[8:1],,,5,,,4,,,3,,2,2-6[8:1],,,8-4[8:1],,,2,,,8,,,
{24}1xq5[8:1]*>4[8:1],,,,,,,,,,,,86,,,34,,,2,,2,4,,4,
{24}3-8[12:1],,5,4,,5,3b,,,5,,6,8>3[8:1],,,7,,6,6,,5,,,4,
{24}3-6[12:1],,5,4,,5,3,,7,,,8,5^2[8:1],,,6,,7,7,,,8,,,
{24}1h[4:1]/7,,,E5/B4,,,6h[4:1],,,E1/B1,,,3h[4:1],,,E5/B4,,,6xh[12:1],,4,5,,3,
{24}4h[8:1],,,3,5,4,6h[8:1],,,3,5,4,6h[8:1],,,3,5,4,6h[8:1],,,E1/B8,,,
{24}6^1[12:1],,4,5,,4,6b,,,4,,3,1v6[8:1],,,2,,3,3,,4,,,5,
