&title=Life Without You
&artist=BEMANI Sound Team "Sota Fujimori"
&first=0.44
&des=IronPlanet
&lv_5=14
&inote_5=(150)
{2}3h[2:1]/5h[8:3],{8}6,{4}4-8[8:1]/7,6h[2:1],1,
{24}2,,5,{8}3,{24}4/6,{6},5/7-3[12:1],{2}1h[2:1],
{8},2/4,,{24},,3,{4}3qq4[8:3]/5h[4:1],
{24},{6},6,{4}7,{24}8,,8,4,,7,3,,6p4[24:7],2,,1h[6:1],{4},,
{24}1,,1,5,,2
,6,,3,7V53[4:1],,4,8,,5h[6:1],{8},,,3h[4:1]/7h[8:1],,6,
{24}2/6,,1,5,,5,2,,2,6,,6,3V51[4:1],,3,{8}7h[4:1],,,
{24}6,,1,5,,2,6,,3,7,,4,{4}8w4[8:1],8b,
{8}2/6,{24}7,,8,,,8,{8}7,2/6,{24}4,,5,{8}4>1[8:1],,4/8,{24}7,,8,,,8,{8}7,2/6,
{24}3,,4,{4}3q5[4:1],5<3[4:1],,,
{12},5,{24},5,3/7,,,1,,8,1,,8,1,{6},3/7,{4}1b/5<8[8:1],
{8}1,{24}5,,1,,,1,{8}5,4/8,{24}4,,8,{4}4>1[8:1],
{8}8,{24}4,,8,{8}4,1/5,,{24}1,,5,{4}1>4[8:1],
{8}5,{12}1,5,{24},5,{8}1,4/8-3[8:1],3-6[8:1]/7,{2}6<4[4:1],
{8},,1w5[8:1]/5,{4}3/7,{8},3b/7b,{12},1,{24},1,{8}2,3/7,{24}5,,4,
{4}5<8[8:1],{8}1/5,{24}2,,1,2,,1,{8}2,3/7,{24}6,,5,{4}6p4[4:1],4>6[4:1],,
{24},{6},4,{8}4,2/6,{24}1,,6,2,,7,{8}3,{2}4>1[8:1]/8<5[8:1],
{8}4b/8b,{12},8,{24},8,{8}4,1/5,{24}5,,1,5,,2,6,,3,7,,4,{8}8,{24}1/5,{6},3/7,
{24}1,,5,{8}1>4[8:1],,5,{24}1,,5,1,,5,{8}1,4/8-3[8:1],3-6[8:1]/7,{4}6<4[4:1],,,
{8}4/8<2[2:1],3/7,{4}6h[4:1],{24},{6},5,{4}3/7qq8[2:1],1h[2:1],,,
{24}3,{6},2>7[12:5]/6,{2}1h[2:1],
{8},{24}2,{6},3qq4[12:5]/7,{4}4,5pp4[2:1],,4>7[2:1],2h[4:1],{24},
{6},3,{4}1qq2[2:1]/5,7h[2:1],,,
{24}3,{6},4>7[12:5]/8,{2}5h[2:1],
{8},{24}6,{6},1/5pp4[12:5],{4}4,{2}3qq4[2:1],4w8[8:1],
{8}2b-5[8:1]/6b,1,2/6-3[8:1],7,1>5[4:1]/6,8,
{24}1/5q6[24:5],{6},6<4[24:7],{4}7h[4:1],{8},
{24},,6,{8}5,7/8h[4:1],,1,{24}2,,4,3,,5,{8}4,5h[4:1]/6,,4,{24}3,,1,2,,8,
{8}1,{24}7-4[8:1]/8,,1,{8}8,2h[8:1],,3-6[8:1]/5,4/6,8,
{24}7,,5,6,,4,{8}5,3h[8:1]/4,2,1/8,{24}7,,5,6,,4,{8}5,3h[4:1]/4,,
{24}2,,8,1,,7,{8}8-4[8:1],7,6-2[8:1],5,4-8[8:1],3,2,,1,
{24}6,,6,2,,2,7,,7,3,,3,{8}8h[8:1],{4}4w8[8:1],4b,
{24}1,,1,8,,8,7,,7,6,,6,5,,5,4,,4,3,,1,2,,8,1h[8:1],,,7,,8,7,,1,8,,2,,,
8,8,,1h[8:1],,,,2,,2,3,,3,4,,4,,,5,6,,6,7,,7,8,,,1,,3,2,,4,{12}3,5,,
1v4[12:1]/8v5[12:1],{8}2/7,{6}1/8,{8}3/6,
{24}4/5,,3,6,,2,7,,1,8,,,2/7<4[8:1],,3,6,,{4}2h[6:1],
{24}1,1,,3,2,,4,3,,5,4,,6,7,,7,8,,8,1,,1,
{8}2,3-7[8:1]/5,4,{24}3/6-1[8:1],,5,{8}5,2-5[8:1]/6,,{24}2/7<2[4:1],,8,8,,1,
{2}7,{8}1/8,2/7,3/6,4/5,{24}1,,1,8,,8,2,,2,7,,7,3,4,5,6,7,8,{4}1/5w1[8:1],
5b,{8}3/7,{12}6,{8}5,{24}5,{8}6,3/7,{24}1,,8,
{24}1>4[8:1],,8,{8}1,1/5,{24}6,,{8}5,{24}5,{8}6,3/7,{24}2,,1,
{4}2p8[4:1],8<2[4:1],,,
{12}1,{24}8,1,,8,2/6,,,4,,5,4,,5,{8}4,{12}2/6,6,,{4}4b/8<5[8:1],
{8}4,{24}8,,4,,,4,{8}8,1/5,{24}1,,5,{4}1>4[8:1],
{8}5,{24}1,,5,{8}1,4/8,8,{24}4,,8,{4}4>1[8:1],
{8}8,{12}4,8,{24},8,{8}4,1/5-2[8:1],2-7[8:1]/6,{2}7<1[4:1],
{8},,4w8[8:1]/8,{4}2/6,{8},2b/6b,{12},4,{24},4,{8}3,2/6,{24}8,,1,
{24}8<5[8:1],,1,{8}8,4/8,{24}3,,4,3,,4,{8}3,2/6,{24}7,,8,{4}7q1[4:1],1>7[4:1],,
{4},{24}8,,1,8,,1,{8}3/7,{24}4,,5,4,,5,{8}4,{12}3/7,3,,{4}1>4[8:1]/5b,
{8}5,{12}1,5,{24},5,{8}1,4/8,{24}8,,4,{4}8<5[8:1],{8}4,{12}8,{24}4,8,,4,{8}8,1/5,
{24}1,,5,{8}1>4[8:1],,5,{24}1,,5,,,5,{8}1,4/8-3[8:1],3-6[8:1]/7,{4}6<4[4:1],
,,2/6,{8}3h[4:1]/5,,6,4/7h[4:1],,{24}1,,4,{8}2,{4}3h[8:1]/5,4/6,{6}3q5[4:1]/7
,
{24}7,6,{8}5<3[8:5],,8h[8:15],{1},4h[4:3],E
