&title=THE EARTH
&artist=II-L feat. amelie xoxo
&first=-1.73
&des=Hoshimiyafanboy
&lv_5=13
&des_5=Hoshimiyafanboy
&inote_5=
(102.4){4},{20},,,,,,,,,,,,,,,{5}E8,
E6,3h[20:9],,,E2,
E4,7h[20:9],,,B4,
B7,1h[20:9],,,B6,
B2,5h[20:9],,,4h[5:1],
3h[5:1],{20}2,,,1,,,{10}8,{20},7,,,{5}6h[5:1],
5h[5:1],{20}4,,,3,,,{10}2,{20},1,,,{5}7h[5:1],
8h[5:1],{20}1,,,2,,,{10}3,{20},4,,,{5}5h[5:1],
6h[5:1],{20}7,,,8,,,{10}1,{20},2,,,{5}3b/6b,
5/2>4[5:1],{20}4<6[20:3],,,6<8[20:3],,,{10}8>2[20:3],{20},2,,,{5}5,
4/7<5[5:1],{20}5>3[20:3],,,3>1[20:3],,,{10}1<7[20:3],{20},7,,,{5}4,
5/3-7[5:1],{20}7-4[20:3],,,4-6[20:3],,,{10}6-3[20:3],{20},7,,,{5}8,
1/7-3[5:1],{20}3-8[20:3],,,8-2[20:3],,,{10}2-7[20:3],{20},3,,,{5}4bh[5:1],
5h[5:1],{20}E4,B3,B2,B8,B7,E7,A3,D3,A2,A8,D8,A7,
{5}1h[5:1],8h[5:1],{20}E2,B2,B3,B5,B6,E7,A2,D3,A3,A5,D6,A6,
{5}3h[5:1],4h[5:1],{20}E3,E2,E1,E8,E7,E6,A2,A1,A8,A7,A6,A5,
{5}8h[5:1],7h[5:1],{20}E1,E2,E3,E4,E5,E6,A1,A2,A3,A4,A5,A6,
{5}1bh[10:1],6h[10:1],{20}2x,3,4,5x,6,7,3x,4,5,6x,7,8,
{5}1h[10:1],7h[10:1],{20}3x,2,1,8x,7,6,2x,1,8,7x,6,5,
{5}4h[10:1],8h[10:1],{20}4x,3,2,8x,7,6,3x,2,1,7x,6,5,
{5}1h[10:1],5h[10:1],{20}1x,2,3,5x,6,7,2x,3,4,6x,7,8,
{1}1b>1>1b[20:53]*-7-2-6-3-5-3-6-2-7-1[20:53],
{5},,,,,,,,,,C,
E5,{20}E8,,,E2,,,{10}E6,{20},E4,,,{4}8bp6[4:1],
8/2,{20},3,5,2,6,1,7,8,6,1,
{10}5<8[20:3],{20}6,3,,5,4,,{10}3,2>5[20:3],6/3,{20}7,2,{10}7,6,
{4}4>1>4[4:1],4/6,{20},6,5,7,4,8,3,1,2,8,
{10}1>4[20:3],{20}2,7,,1,8,,{10}6,5<8[20:3],6/3,{20}2,5,{10}2,3,
{4}3>6[4:1],6/3,{20},4,5,3,6,2,7,1,8,2,
{10}7<4[20:3],{20}2,1,,7,8,,{10}1,2>5[20:3],3/6,{20}7,2,{10}7,6,
{4}5/4,5h[4:1]/4h[4:1],{20},6,3,6,4,5,4,6,3,6,
{10}4,{20}5,4,,4,5,,{10}4/5,6/3,6/3,{20}5,4,{10}5,5/4,
{20}6b<8[20:3],,,5,4,6,,3,,2,1x,2,,8,1,8,,2/7,,,1x>3[20:3],
,,2,8,1,,7,,6,4x,5,,3,4,2,,1/5,,,6x>4[20:3],
,,7,1,6,,2,,3,4x,3,,5,4,5,,6/3,,,2x<8[20:3],
,,3,6,2,,7,,6,4x,5,,3,4,2,5,1,6,8,
7b<4[20:3],,,3,3,7,,2,,1,8x,1,,7,8,7,,6/1,,,2x>5[20:3],
,,6,6,2,,7,,8,1x,8,,2,1,2,,3/8,,,4x<7[20:3],
,,3,3,4,,2,,1,1x,8,,7,7,8,,6/1,,,5x>2[20:3],
,,6,6,5,,7,,8,8x,1,,2,2,1,3,8,4,7,
{4}6x/5b>1[4:1],{20}1>5[4:1],,7,,5,{4}5xqq1[4:1],{20}6,,7,,8,
{4}8x<5[20:3],{20}8/5,4,3,2,1,{4}8x/5<8[20:3],{20}5/8,1,2,3,4,
{4}1/5bx<1[4:1],{20}1<5[4:1],1,,{10}3,5xpp1[4:1],{20},,,4,4,,{10}3,
{4}2x>5[20:3],{20}2/5,6,7,8,1,{4}2x/5>2[20:3],{20}5/2,1,8,7,6,
{10}C,1b/8b,{20},2>6[4:1],,8,,6,{10}6xqq2[4:1],,,7,8,
{5}8x,{20}1,1,7,2,6,3,{10}5,{20}8h,3,5,4h,7,1,6h,3,
{4}5x<1[4:1],{20}1<6[20:3],1,,{10}2,4x,{20},,,4/5,,6h[20:1]/3h[20:1],,,7b/1bh[20:3],
,,6,,5/8,,7/4,,,{10}5/2h[10:1],4,{20},3/1,,,2/8,,,5/3h[10:1],
,4,,1/2,,,7/1,,{10}6/4h[10:1],5,{20},3/1,,,8/6,,4/5h[20:3],
,,3,,4/2,,3/1,,,2/6h[20:3],,,1,,8/5,,6/4,,,{10}5/7h[10:1],
3,{20},8/2,,,4/6,,{4}8xh[4:1],{20}1b>4[20:3],,,7/2,,1h/8<5[20:3],
,,7,,8/2>5[20:3],,,1,,{2}2/8h,
E
