&title=996
&artist=李化禹
&first=-3.42
&des=桂花君
&lv_5=13
&inote_5=(70)
{1},
{16}5h[8:1],,,5<4[2:1],C,,,C,,Ch[16:5],,,,,,,
{16}5h[8:1],,,5<4[2:1],,,,,Ch[16:6],,,,,,,,
{16}8>3[16:1],,1,1,8<5[16:1],,7,,8-4[16:1],1,1,1,8,,3,,
{16}1<6[16:1],,8,8,1>4[16:1],2,2,2,1s5[8:1],,7,7,1,,8,,
{16}7-2[16:1],,1,1,7-4[16:1],,3,,7z3[8:1],1,1,1,7,,2,,
{16}1-6[16:1],,8,8,1-4[16:1],2,3,2,1-5[32:1],,8,8,{64}1b,Cf,,,,,,,,,,,,,,,
{32}2v4[16:1]/6,,,,7,,1,,2-6[16:1]/5,,,,8,,1,,2pp1[8:1]/7,,,,7,,8,,26,,,,5,,,,
{32}7v5[16:1]/3,,,,2,,8,,7-3[16:1]/4,,1,,8,,1,,7-5[32:1]/2-4[32:1],,,,1,,8,,72,,,,36,,,,
{32}1v3[16:1]/8,,,,7,,2,,1-5[16:1]/5,,,,8,,2,,1pp8[8:1]/6,,,,6,,2,,17,,,,5,,,,
{32}8v6[16:1]/4,,,,2,,7,,8-4[16:1]/3,,2,,1,,2,,8-6[32:1]/3-1[32:1],,,,2,,7,,83,,,,27,,,,
{16}5xh[16:1],4,5h[16:1],4,5h[16:1],4,5h[16:1]/4,4,4hx[16:1]/5,,4h[16:1]/5,,4h[16:1]/5,,4h[16:1]/5,{32}5,5,
{16}6hx[16:1],3,6h[16:1],3,6h[16:1],3,6xh[16:1]/3,3,3h[16:1]/6,,3h[16:1]/6,,3h[16:1]/6,,3h[16:1]/6,{32}6,6,
{24}7<4[24:1]/2x,8,1,8,1,1,2>5[24:1]/7x,1,8,1,8,8,7-4[24:1]/2x,8,1,8,1,1,2-5[24:1]/7x,1,8,1,8,8,
{24}2/7x,7,7,7/1x,1,1,1/3x,3,3,3/5x,5,5,{32}5bs1[4:1],,,,7h[8:1],,,,,,,,7,,,,
{24}5-2[16:1],3,6,4,7,,5-8[16:1],7,7,4,6,,5>2[16:1],3,3,6,4,,5<8[16:1],7,6,3,4,,
{24}5-1[16:1],3,4,7,6,,5,6,6,3,2,,2v3[16:1]/8v7[16:1],28,28,2v5[16:1]/8v5[16:1],28,,,,,,,,
{24}1-6[16:1],7,2,8,3,,1-4[16:1],3,3,8,2,,1<6[16:1],7,7,2,8,,1>4[16:1],3,2,7,8,,
{24}1-6[16:1],7,8,3,2,,1-4[16:1],2,3,8,7,,1,8,8,7,7,,Cf/B2/B3/B7/B6/E2/E3/E4/E8/E7/E6,,,,,,
{64}1b/8b,2x/7x,3x/6x,4x>5[8:3]/5x<4[8:3],,,,,{8},,,,,,,
{24}7x-4[8:1]/8,7/8x,7x/8,7/8x,7x/8,,7x/8,1,2,1,2,3,2x-5[8:1]/1,2/1x,2x/1,2/1x,2x/1,,2x/1,8,7,8,7,6,
{24}6x-1[8:1]/5,6/5x,6x/5,6/5x,6x/5,,6x/5,4,3,2,3,4,5bw1[8:1],,,,,,,,,,,,
{24}2x>5[8:1]/1,2/1x,2x/1,2/1x,2x/1,,2x/1,8,7,8,7,6,7x<4[8:1]/8,7/8x,7x/8,7/8x,7x/8,,7x/8,1,2,1,2,3,
{16}4-1[16:1]/5,,3,3,4/5-8[16:1],6,6,6,4pp8[16:3]*qq8[16:3],,3,3,4b,,,,
{16}72,72,,7<2[8:3]/2,,72,72,,,,,,,,,,
{16}72,72,,7<2[8:3]/2,,72,,,,,,,,8x,8x,8x,
{16}8xv6[16:1],,8-4[16:1]/1,1,8v2[16:1]/2,,8v6[16:1]/1,1,8-5[16:1]*-3[16:1]/7,,81,1,8,,26,,
{16}1xv3[16:1],,1-5[16:1]/8,8,1v7[16:1]/7,7,1v3[16:1]/8,8,1-4[16:1]*-6[16:1]/2,,18,8,1,,73,,
{16}8x<5[16:1],,8v5[16:1]/1,1,8v3[16:1]/2,,8>3[16:1]/1,1,8pp4[8:1]*qq4[8:1]/7,,86,6,8,,,,
{16}1x>4[16:1],,1v4[16:1]/8,8,1v6[16:1]/7,7,1<6[16:1]/8,8,1qq5[8:1]*pp5[8:1]/2,,13,3,1,,,,
{16}8xqq6[16:1],,8-4[16:1]/1,1,8pp2[16:1]/2,,8qq6[16:1]/1,1,8w4[16:1]/7,,81,1,8,,26,,
{16}1xpp3[16:1],,1-5[16:1]/8,8,1qq7[16:1]/7,7,1pp3[16:1]/8,8,1w5[16:1]/2,,18,8,1,,73,,
{32}25,,3,4,3,4,3,4,1x,,6,5,6,5,6,5,8x,,2,4,3,5,4,6,1x,,7,5,6,4,5,3,
{32}8x,,,7,61,,,2,8-6[32:1]/3,,,18,2-4[32:1]/7,,,81,8b/1-5[16:1],,,,2b,,,,1b,,,,B1/B2/B3/B4/B5/B6/B7/B8/Cf,,,,
{16}3h[16:5]/7h[4:1],,,,,,
{48}2x,1x,8x,7x,6x,5x,2x,1x,8x,7x,6x,5x,2x,1x,8x,7x,6x,5x,2xqq5[8:1],1x,8x,7x,6x,5x,2x,1x,8x,7x,6x,5x,2x,,,,,,6x,,,,,,
{16}15,37,{96}15,B1,C,B5,,,,,,,,,
{96}84,E8,B7,B6,E6,,2,,,,,,84,E1,B1,B2,E3,,6,,,,,,
{96}84,E8,B7,B6,E6,,2,,,,,,84,E1,B1,B2,E3,,,,,,,,
{16}3h[16:5]/7h[4:1],,,,,,
{24}3xh[96:1]/7xh[96:1],3xh[96:1]/7xh[96:1],3xh[96:1]/7xh[96:1],2xh[96:1]/6xh[96:1],2xh[96:1]/6xh[96:1],2xh[96:1]/6xh[96:1],1xh[96:1]/5xh[96:1],1xh[96:1]/5xh[96:1],1xh[96:1]/5xh[96:1],2xh[96:1]/6xh[96:1],2xh[96:1]/6xh[96:1],2xh[96:1]/6xh[96:1],3xh[96:1]/7xh[96:1],3xh[96:1]/7xh[96:1],3xh[96:1]/7xh[96:1],8b/4b,
{24},,15,2,3,74,6,5,42,3,4,58,7,6,53,2qq5[8:1],1,84,5,6,7b/2b,,,
{16}6h[8:1],,,,3h[16:1]/7h[16:1],,
{48}7x,8x,1x,2x,3x,4x,7x,8x,1x,2x,3x,4x,7x,8x,1x,2x,3x,4x,7xqq1[8:1],8x,1x,2x,3x,4x,7x,8x,1x,2x,3x,4x,7x,,,,,,2x,,,,,,
{16}84,62,{96}84,B8,C,B4,,,,,,,,,
{96}15,E2,B2,B3,E4,,7,,,,,,15,E1,B8,B7,E7,,3,,,,,,
{96}15,E2,B2,B3,E4,,7,,,,,,15,E1,B8,B7,E7,,,,,,,,
{16}6h[16:5]/2h[4:1],,,,,,
{24}6xh[96:1]/2xh[96:1],6xh[96:1]/2xh[96:1],6xh[96:1]/2xh[96:1],7xh[96:1]/3xh[96:1],7xh[96:1]/3xh[96:1],7xh[96:1]/3xh[96:1],8xh[96:1]/4xh[96:1],8xh[96:1]/4xh[96:1],8xh[96:1]/4xh[96:1],7xh[96:1]/3xh[96:1],7xh[96:1]/3xh[96:1],7xh[96:1]/3xh[96:1],6xh[96:1]/2xh[96:1],6xh[96:1]/2xh[96:1],6xh[96:1]/2xh[96:1],1b/5b,
{24},,52,2,2,26,6,6,63,3,3,73,7,7,74,4,4,48,8,8,{16}48,26,1b>1[4:11]*<1[4:11]/5b,
