&title=#SUP3RORBITAL
&artist=ああ…翡翠茶漬け…
&first=0
&des=なないし
&clock_count=4
&lv_5=14+
&inote_5=(210)
{1},
{8}2h[8:3],,,7q1[8:5],,,4h[4:3],,
{8},,,,8,7,6/5,,
{8}7h[8:3],,,2p8[8:5],,,5h[4:3],,
{8},,,,1,2,4,3h[8:3],
{8},5,5h[8:3],,,4,3,2,
{8}4,3,,6h[4:1],,5,3h[8:1],4,
{8}7h[8:5],,2,2,,3,,6z2[8:3]/4s8[8:3],
{8},,,,,{16}1,1,8-4[8:1],,2,,
{8}3b>6[4:1]/8b,,,5bpp1[2:1],,,2bq5[2:1],,
{8},,,,7,6,5-1[8:1],4,
{8}5b/3b>6[4:1],,,4bpp8[2:1],,,1bq3[2:1],,
{8},,,,7,{16}1,8,2/7,,,,
{8}3/4,2,5/6,7,2,1/3,5/6,4/7,
{16}8,7,6,5,3,2,1,8,
{8}6h[8:1],{32}1,2,3,4,
{8}7h[8:1],{32}2,3,4,5,
{8}8,8,6,6,4,4,2,2,
{16}8,1,2,3,4,5,6,7,
{16}8/1,,3b/6b,,,,,,
{16}2h[8:1],,7-4[8:1],,2h[8:1],,7,,1h[8:1],,3-7[8:1],,1h[8:1],,3,,
{16}2h[8:1],,8-4[8:1],,2h[8:1],,8,,3h[8:1],,6-1[8:1],,3h[8:1],,6,,
{16}4h[8:1],,2-6[8:1],,4h[8:1],,2,,3h[8:1],,5-8[8:1],,3h[8:1],,5,,
{16}1h[8:1],,{32}7,6,5,4,{16}1,,1,,7,4,6,5,7,,1/8,,
{16}7h[8:1],,2-5[8:1],,7h[8:1],,2,,8h[8:1],,6-2[8:1],,8h[8:1],,6,,
{16}7h[8:1],,1-5[8:1],,7h[8:1],,1,,6h[8:1],,3-8[8:1],,6h[8:1],,3,,
{16}5h[8:1],,7-3[8:1],,5h[8:1],,7,,6h[8:1],,4-1[8:1],,6h[8:1],,4,,
{16}7,,6/8,,2,,1/3,,4,,6,5,7,,8/1,,
{16}1,,8-3[8:1],,7-4[8:1],,8,,7,,1-5[8:1],,6-1[8:1],,1,,
{16}6,,4,3,2,,8-5[8:1]*-3[8:1],,,,8,,,,,,
{16}8^3[8:1],,7,,6,,5^8[8:1],,4,,3,,2,,1,,
{16}7-4[8:1],,3-7[8:1],,7,,3,,8w4[8:1],,,,,,,,
{16}1b-5[16:1]/6,,,7b-4[16:1],,,3b-8[16:1],,,6b-1[16:1],,,1,2,3,4,
{16}8b-4[16:1]/5,,,2b-5[16:1],,,6b-1[16:1],,,3b-8[16:1],,,7,6,5,4,
{16}1,,{32}7/2,3,4,5,{16}8,,3,,{32}2/7,6,5,4,{16}1,,8-4[8:1],1,8,1,
{4}8b<6[16:2]*<5[16:3]*<4[16:4]*<3[16:5]*<2[16:6]*<1[16:7]*<8[16:8],,,,
{8}2/7h[2:1],,,6,6h[2:1],,,5,
{8}5h[2:1],,,3,3h[2:1],,,4,
{8}4h[2:1],,,5<4[8:7],5p4[4:3],,,,
{8},,,,,,1,,
{8}8/2h[2:1],,,3,3h[2:1],,,4,
{8}4h[2:1],,,5,5h[2:1],,,3,
{8}2h[2:1],,,8>8[8:7],7q1[4:3],,,,,
{4},,,
{16}2,4,3,,6,,5,,6p4[1:1],,,,6,,2p4[8:5],,2,,
{8},,,,,,,
{16}7,5,6,,3,,4,,3q5[1:1],,,,3,,7,,7,,
{4},8,7,6,
{8}5/3,2,4/3,5,6/4,7,6/5,4,
{8}5/3,1,4/2,6,7/5,8,6/4,3,
{16}8/2,,6,5,7,,3,4,2,,6,5,7,,8/1,,
{8}7b/3b,6b/2b,5b/1b,8bq6[4:1]/4bq2[4:1],,,,,
{24}5/1,8,7,6,5,4,3,2,1,8,7,6,{8}5bq1[8:1]/1bq5[8:1],,,,7-4[8:1],5/6,,2-6[8:1],5/3,,8,8,
{8}8h[8:1],6h[8:1],4h[8:1],2h[8:1],8^5[8:1]*^3[8:1],,,,2-5[8:1],4/3,,7-3[8:1],4/6,,2,1,
{24}4/8,1,2,3,4,5,6,7,8,1,2,3,{8}4bp8[8:1]/8bp4[8:1],,,,2-5[8:1],1/3,,7-3[8:1],4/8,,1,1,
{8}1h[8:1],3h[8:1],5h[8:1],7h[8:1],1^4[8:1]*^6[8:1],,,,7q1[8:5]/3q5[8:5],2/6,,,,,,,
{8}7-4[8:1],8,7,8,1-4[8:1],8,1,,
{16}7,1,6,2,5,3,6,4,7,3,8,2,1b,,,,
{8}2-5[8:1],1,2,1,8-5[8:1],1,8,,
{16}2,8,3,7,4,6,3,5,2,6,1,7,8b-4[16:1],,,,
{16}8/1b-6[16:1],,,3b-8[16:1],,,5b-2[16:1],,,7b-4[16:1],,,1b-5[16:1],,,6b-1[16:1],,,4b-7[16:1],,,2b-5[16:1],,,8bw4[8:1],,,,,,,,
{8}6/2,6/2,7/3,7/3,8/4,8/4,5/1,5/1,
{16}4,3,2,1,7,6,5,4,
{32}1s5[8:1],8z4[32:3]*z4[32:3],7,6,5,4,3,2,{8},,
{8}3q1[8:2],,,7q5[8:2],,,3q1[4:2]*q5[4:3],,,,,,,,,,
{8}6p7[8:2],,,2p3[8:2],,,6p7[4:2]*p3[4:3],,,,,,,,,,
{16}4/6,,,,3,4,2/5,,,,6,5,4/7,,,,
{8}8-4[8:1],4,8,3,2-5[8:1],6-1[8:1],2,6,
{8},8/4,7/3,6/2,
{24}1/5,4,3,2,1,8,7,6,5p3[3:2],4,3,2,
{1}1p7[2:1]*p7[2:1]/5,
{8}1-4[8:1],7,1,6,1-6[8:1],5,1,4,
{8}4-7[8:1]/8-3[8:1],,4/8,,4/8,3/7,2/6,,
{8}8-5[8:1],2,8,3,8-3[8:1],4,8,5,
{8}5-2[8:1]/1-6[8:1],,5/1,,1/5,2,3/7,6,
{8}4q7[2:1]/5,3,3,,,1,2,8/3,
{8}7,1-5[8:1]/6,,1/8,,7-4[8:1],3-8[8:1],7,
{8}3,,5,1/5-8[8:1],,3/5-2[8:1],,7b-3[8:1]/5b,
{8},7b/1bw5[8:1],,1b,,{16}8,1,{8}7/2,,
{8}2-5[8:1],7,2,6,1-6[8:1],5,1,4,
{8}8-3[8:1]/4-7[8:1],,8/4,,8/4,7,6/1,2,
{8}3b/5b,8b/7b,,4b/6b,2b/1bw5[8:1],,1b<2[8:3]*>8[8:3],,
{8},,,,6,{16}4,5,3/6,,,,
{8}2/1,3,8/7,6,3,4/2,8/7,1/6,
{8}2/4,3/5,4/6,{16}8,1/7,,4,3/5,,6,4/7,,3,
{16}5/2,,5/2,,5/2,,6,5,7/4,,7/4,,7/4,,3,5,
{24}1,2,3,4,5,6,2/7,3,4,5,6,7,
{4}1bp4[8:1]/8bq5[8:1],,
{8}7-4[8:1],8,7,2^5[8:1],6p4[4:3]*p8[2:1],2,6,,,,,,,
{8}2-5[8:1],1,2,8-4[8:1],7-3[8:1],8,7,1-5[8:1],2>1[8:5],1,2,,,,,,
{8}7p3[8:1],8,7,2-5[8:1],1,2,7^4[8:1],3qq8[1:1],7,3,,,,7,,6,,5,,5h[8:7],,,1,1h[8:3],,,,
{12}2/6,2/6,2/6,3/7,3/7,3/7,4b/8b,,2b/6b,,4b/8b,,
{8}1^6[8:1],2,1/3,4,5-2[8:1],6,7/5,1,
{8}8^3[8:1],7,8/6,5,4-7[8:1],3,1-3[8:1]/4,8-4[8:1],
{8}1-5[8:1],8-6[8:1],1-3[8:1],8,1,,6,4/7V51[4:1],
{8}8,2/7,3,4V26[4:1],,1/4,8,7p4[4:3],
{8},1,1h[8:1],,1h[8:1],,1h[8:1],,
{16}1,6,2,5,1,6,2,5,
{8}1,6/8-4[8:1],1/7,8^3[8:1]*^5[8:1]/2,,8,,{16}4,4,{8}4,3/5<3[8:3],4/6,5/7,,
{16}5,6,7,8,4,5,6,7,8,1,2b/6b,,,,
{16}3/8,,2-5[8:1],1,,1,2,,6,,7-3[8:1],8,,8,7,,1w5[8:1],,,,
{16}1,,,,3/7,,2/5,,4/8,,1/6,,8h[8:1]/2h[8:1],,,7h[8:1]/3h[8:1],,,6/4,,5,4,3,2,1,8,7/3,,
{16}1,2,3,4,2,3,4,5,3,4,5,6,4,5,6,7,
{1}8q1[2:3]/4q5[2:3],,
{8}5,4/6,,4,3/5,,5/6,4/7,,3/4,2/5,,1,8,2/7,,
{8}4/6,4h[8:1]/6h[8:1],,5/3,5h[8:1]/3h[8:1],,4/7,4h[8:1]/7h[8:1],,5/2,5h[8:1]/2h[8:1],,1/7,2,3/8,7,
{8}4/6,3,5/2,4,3/5,6,4/7,5,
{8}4/6,3,4/2,1,3/5,6,5/7,8,
{16}1,8,1,8,1,8,1,8,
{16}1,8,1,8,1,8,1,8,
{32}1b,2,3,,{16}7,8,{32}7b,6,5,,{16}2,1,{32}2b,3,4,,8b,7,6,,1b,2,3,,7b,6,5,,
{4},
{1}6b<6[2:7]*<2[4:7]*<4[8:21]/2b>2[2:7]*>6[4:7]*>8[8:21],,,,E
