&title=Samuel's Farewell
&artist=Sobrem
&first=0
&des=Ilka
&des_5=Ilka
&lv_5=14
&inote_5=(135){4},,,,{16},,{24},7/2,
6/3,{4}4-1[8:1]/5-8[8:1],,3-8[8:1]/7-4[8:1],
,5<8[8:1]/1>4[8:1],1-5[8:1],1/5,
{8}4/3-6[8:1],2,{4}1x,{8}4/3-5[8:1],2,{4}1x,
{8}5/6,7,{24}6/4,5,,,,,5/3>8[8:1],4,,,,,{4}5/3,
{8}5/6-3[8:1],7,{4}8x,{8}8/7-1[8:1],6,{4}5x,
{16}2<7[8:1],2,,,6>3[8:1],6,,,1-6[8:1]*-4[8:1],1,,,{4}1,
{8}5/6,7,{4}4/E8,{8}6/5,7,{24}1/B5,E5,,,,,7/B3,
B4,,,,,3/B6,B5,,,,,E3/8>3[8:1],B3,,,,,{4}8/6,
{8}4/3,2,{24}6/E3,B3,,,,,{8}1/2,3,{24}B3/8<5[8:1]*>3[8:1],B4,,,,,{4}8,
{16}5x/3x,5x/3x,,,2x-7[8:1]/6x-1[8:1],2x/6x,,,{4}2/6,
{16}2,1,3,8,{8}2h[8:1],{16}7>5[4:1],8,6,1,{8}7x,{16},,8,8,
{8}6h[8:1],{16}2-7[8:1],1,3,8,{8}2,5x,{16}1,1,6,6,2,4,
{4}3h[8:1],{16}8>6[4:1],1,7,2,{4}8-4[8:1],8x,
{16}3,4,3,4,{8}2h[8:1],1,{16}7,8,6,1,4,2,5>2[8:1],3,
6,4,{8}7qq8[4:1],,8b/7b,{24}A1,A2,A3,A4,,,{8}8/6,3/1,
5/6,4/3,{4}1b>4[8:1],8b/1b<6[8:1],1b/4bqq5[16:5],
4b/6b<1[8:1],6b,{16}1-6-4[16:3],5,1,5,{4}1bxV73[0.44##0.3289],
1,{16}6x/2x,6x/2x,,,4x/8x-3b[8:1]*-5b[8:1],8x/4x,,,{4}8,
{8}4/3-6[8:1],2,{16}1,1,,,{8}4/3-5[8:1],2,{16}1,1,,,6<1[8:1],
6,,,2q7[4:1],2,,,{4}7p1[4:1],8,
{16}6x<3[8:3],5x,{8}8/4xh[8:1],,5,6,7,{4}4/8>2[32:3],
{16}3p7[8:1],3,,,4<6[32:3],4,,,7p3[8:1],7,,,8,8,,,{8}6/5p1[8:1],
7,{4}E8,{8}6/5>2[8:1],7,{24}B6,B5,{48},,,,,,,,{16}1/8<5[8:1],
1,,,4>1[8:1],4,,,6-3[8:1]*-1[8:1],6,,,{4}6,
{8}3/4<7[8:1],2,{24}E3,B3,,,,,{8}8/1<6[8:1],2,{24}B3,B4,{48},,,,,,,,{16}3<6[8:1],
3,,,7p3[8:1],7,,,2w6[8:1],2,,,{4}2,
{8}5/4,2/4,7/8,6,4/5,7/5,{16}2,1,2,1,
{32}3,4,5,6,7,8,1,2,{4}3/5q1[8:1],3/5>2[8:1],{8}5/7,{24}7,6,5,
{8}4h[8:1],2,{4}4/5<8[8:1],4/5,5<2[16:3]*<2[16:3],
5/4,5<4b[4:1],5/4,5h[4:1],
{16}1<3[4:1],3,7,7,1,,,8,{4}8>6[4:1],{16}8/2,,,1,
{32}1<3[4:1],,,,,7x,,,{16}7/1,,,8,{8}8-4b[8:1],{16}1,7,{4}8qq1[16:3],
2-5[8:1]*-4[8:1],2<7b[4:1],{16}7x<4b[16:3],,,4x>8b[16:3],,,{8}8x<4b[16:3],
{16},4x>8b[16:3],,,8x<4b[16:3],,,4xw8b[8:1],,,{8}8x,{4}E1/E8/B8f,
6/2<4[4:1],{16}8/2,,,1,{32}1>7[4:1],,,,,3x,,,{16}3/1,,,8,
{8}8-4b[8:1],{16}1,7,8-6-3[16:3],,,3V51[16:3],{8}8,1,{4}2q6[8:1]*>5[8:1],
2<5[4:1],3,{8}2h,1h,{4}4h/B8/A8,
{8}5h,6h,{4}3h[8:1]/B7/A7,{8}2h,1h,{4}4h/B8/A8,
{8}6h,7h,{4}8h/B4/A4,{24}3x,4,3,4,,,2x,1,2,1,,,6x,
5,7,4,,,3x,1,3,1,,,2x,3,4,5h[8:1],,,7x,6,5,4h[8:1],,,7x,
8,1,2h[8:1],,,4x,1,5,8,4,1,{8}5h,6h,{4}3h[16:1]/B7/A7,
{8}2h,1h,{4}4h[16:1]/B8/A8,6h[4:1],4h[4:1],
3h[4:1],{24}1x,2,3,4,,,8x>3[8:1],7,6,5,,,{4}8/2,
{24}8x>5[32:5]*>5[32:5],7,6,5,,,{4}8/2,{24}8x>7b[32:7],7,6,5,,,{4}8/2,
{16}2,1,3,4,{8}2h[8:1],{16}6,5,7,8,{24}6,5,4,3,2,1,8,7,6,
{8}2/5,{16}3,4,2,1,{24}3,4,5,{8}6/7h[8:1],{16}1,4,3,8,5,6,
{8}2h[8:1],5,{16}3,4,2,1,{24}4pp6[16:3],5,6,7,8,1,{4}4/2,
{16}3,5,2,4,{8}1h[8:1],{16}5,3,6,5,7,1,4,2,5>2[8:1],3,
6,4,{8}7qq8[4:1],,8b/7b,{24}A1,A2,A3,A4,,,{8}8/6,3/1,
{16}2h[16:1],4h[16:1],7h[16:1],5h[16:1],{4}1b>4b[8:1],1b/5bp1b[8:1],5b/8b<1b[16:5],
8b/6bqq4b[16:3],6b,{16}8-3-5[16:3],4,2,6,{8}8bxV26[16:3],7,
8,4,{16}3x/7x,1x,,,3x/7x-4[8:1]*-2[8:1],5x,,,{4}7,
{8}4/3q7[8:1],2,{16}1,1,,,{8}4/3<6[8:1],2,{16}1,1,,,7<4[8:1],
7,,,1,1h[16:3],,,{8}3h[8:1],8h[8:1],6h[8:1],3h[8:1],
1h[8:1],6h[16:3],{16},7,5,7,{8}4/8,2,{16}8/7<5[8:1],7,,,4q8[8:1],
4,,,1>3[8:1],1,,,8q4[8:1],8,,,5,5,,,{8}6/5p1[8:1],
7,{32}E8,B6,{16}E5,,,{8}6/5>2[8:1],7,{32}E7,B5,{16}E4,,,1/7<4[8:1],
1,,,7/3>8[8:1],3,,,3/6-3[8:1]*-1[8:1],6,,,{4}6,
{8}3/4q8[8:1],2,{32}E2,B3,{16}E5,,,{8}8/1<6[8:1],2,{32}E3,B4,{16}E6,,,{4}1>4b[8:1]/5<8b[8:1],
5-2[8:1]/1-6[8:1],5/1-5[8:1],1/5,
{8}5/4,4/2,7/8,6,5/4,5/7,{16}2,8,4,8,
1,8,5,8,{32}6,7,8,1,2,3,4,5,8,7,6,5,4,3,2,1,{48}8x/3x,4/7,{24}6/5h[24:5],{96},,,,,,,,,,,,,,,,{32}B5,
C,B1,A1,,,,,8b/2b,3,{16}4,7,7,{32}3x,4,{16}5,1,1,{32}4x,5,{16}6,8,8,
{8}6x>3[8:1],{16}7,4,{32}6,,,C,,,,,4x/1x,5,{16}6,2,2,{32}5x,6,{16}7,4,4,
{32}6x,7,{16}8,3,3,1-4[8:1],2,8,2,{4}1,{32}5x/1x-5[8:1],8,{16}7,,2,
{8}1,8x,{32}7x/1x-6[8:1],2,{16}3,,,{4}1/3-8[8:1],3/5-2[8:1],
5/7-4-6b[32:5],7/1,{8}4h[16:1]/7h[16:1],4h[16:1]/6h[16:1],4h[16:1]/5h[16:1],4h[16:1]/3h[16:1],
4h[16:1]/2h[16:1],4h[16:1]/1h[16:1],4h[16:1]/8h[16:1],3h[16:1]/7h[16:1],2h[16:1]/6h[16:1],1h[16:1]/5h[16:1],{12}8b/4b,1,2,
6b/3b,7,8,4b/1b,{48},,,,,{16}1/2,{4}1/2pp2[4:1]*<7[8:1],2qq1[16:3],
6>3[8:1],6,{32}1/A4,A5,A6,A7,{8}2,{4}4xh[12:1]/8x-2[8:1],
3xh[12:1]/8x-6[8:1],8x/2xh[12:1],{24}3x,4,3,4,,,2x,1,2,1,,,6x,
5,7,4,,,3x,1,3,1,,,2x,3,4,5h[8:1],,,7x,6,5,4h[8:1],,,7x,
8,1,2h[8:1],,,4x,5,6,7,{96},,,,,,,,{32}2x,3x,5x/4x,6x,{8}7x,{32}3x,4x,5x/6x,7x,{8}8x,
4/3,2/1,{32}7x,6x,5x/4x,3x,{8}2x,{32}6x,5x,4x/3x,2x,{8}1x,{16}7,3,5,3,
1,3,4,3,{48}E4/7<4[8:1],B4,B5,E6,{96},,,,,,,,,,,,,,,,{32}7/A3,A2,A1,A8,,,,,8x/5x,1,{16}2,6,6,
{32}1x>6>1[2:1],2,{16}3,7,7,{4}1x<6b[8:1],1x>6>1b[32:15],7b,
8b-5[8:1]*q4[8:1],8b,{8}3-5[8:1],2,3/5-2[8:1],6,
5/2-6[8:1],1,2/6-1[8:1],7,6/1-5[8:1],2,1/5>6b[4:1],6,
5/3-7[8:1],4x,{4}3,{8}8/6<1[8:1],2,{4}4/6,
{24}3b,1,3,1,3,1,3,1,3,1,3,1,3,1,3,1,3,1,3,1,3,1,3,1,
3,1,3,1,3,1,{4}3h[4:1],{8}8,7,{16}6,4,5,3,
{8}1,2,{16}8/6,,,5/1w5[16:1],1/5,5/1,
E
