&title=Beautiful Nightmare[DX]
&artist=八王子P
&first=0
&des=心白-HW
&des_5=心白-HW
&lv_5=13+
&inote_5=(110){4},{16},,,,,,,,,,,,E7,
E6,E5,E3/E4,,,,,E7,E6,E5,E3/E4,,,,,E7,
E6,E5,E3/E4,,,,,E7,E6,E5,E3/E4,,C,,,E7,
E6,E5,E3/E4,,,,,E7,E6,E5,E3/E4,,C,,,E7,
E6,E5,E3/E4,,,{8}C,{16}B8/B1,,,A8/A1,,A2/A7,,,6,
5,4,3,{4}A2/B2,{16}6,5,4,3,{4}B3/A3,
{16}6,5,4,3,{4}B4/A4,{16}6,5,4,3,{4}B5/A5,
{16}6,5,4,3,{4}B6/A6,{16}6,5,4,3,{4}B7/A7,
{8}8b,{16}3,3,{8}8b,{16}2,2,{8}8bw4[16:1],1,{4}8b,
{48}4bxV68[8:1],3x,2x,1x,,,,,,,,,{16}1/4-8[16:1],1,1,1,{48}4/1bxV75[8:1],2x,3x,4x,,,,,,,,,{16}4/1-5[16:1],4,4,4,
{48}1/4bxV68[8:1],3x,2x,1x,,,,,,,,,{16}1/4-8[16:1],1,1,1,{48}4/1bxV75-1[16:3],2x,3x,4x,,,,,,,,,{16}1/4,4,4,4,
{48}8bxV24[8:1],7x,6x,5x,,,,,,,,,{16}5/8-4[16:1],5,5,5,{48}8/5bxV31[8:1],6x,7x,8x,,,,,,,,,{16}8/5-1[16:1],8,8,8,
{48}5/8bxV24[8:1],7x,6x,5x,,,,,,,,,{16}5/8-4[16:1],5,5,5,{48}8/5bxV31-5[16:3],6x,7x,8x,,,,,,,,,{16}5/8,8,8,8,
{48}4bxV68[8:1],3x,2x,1x,,,,,,,,,{16}1/4-8[16:1],1,1,1,{48}4/1bxV75[8:1],2x,3x,4x,,,,,,,,,{16}4/1-5[16:1],4,4,4,
{48}1/4bxV68[8:1],3x,2x,1x,,,,,,,,,{16}1/4-8[16:1],1,1,1,{48}4/1bxV75-8[16:3],2x,3x,4x,,,,,,,,,{16}1/4,3,2,1,
{48}1bV35-7[8:1],2x,3x,4x,,,1b,2x,3x,4x,,,,,,,,,,,,,,,8b-6V42[16:3],7x,6x,5x,{4},{16},,{24},{8}1h[8:1],
C,1h[8:1],C,{32}1,8,2,7,3,6,4,5,{16}4>2[16:1],4,4,4,
{8}4-1[16:1],5,4-8[16:1],6,4,7,1>3[16:1],{16}8,8,
{8}1-4[16:1],8,1-5[16:1],7,1,{16}6,6,4,5,5,5,
4/5,5/4,4/5,5/4,6/3,6/3,3/6,3/6,7/2,7/2,7/2,2/7,8-2[8:1]/1-7[8:1],8/1,1/8,1/8,
{4}1-6[8:1]/8-3[8:1],1s5b[16:3]/8z4b[16:3],A8/A1,{48}E6/E4,{384}B6,B3,,,,,,B2,B7,{768},,,,,,,,,,,,,,{256}E8,E2,{16},,{64},,,{128},{8}1>3[12:1],
{16}5<7[12:1],5,{8}1,5,{16}1>4[8:1],1,{8}5<8[8:1],1,5,
1>5[8:1],{16}5<8[12:1],5,{4}1q5q1[24:5],1,{64}D2,A2,D3,A3,D4,A4,D5,A5,D6,A6,D7,A7,D8,A8,{32}D1,
{8}1x>3[12:1],{16}5x<7[12:1],5x,{8}1x,5x,{16}1x>4[8:1],1x,{8}5x<8[8:1],1x,5x,
1x>5[8:1],{16}5x<8[12:1],5x,{4}1xq5q1[24:5],{2}1xpp2[8:1]*qq8[8:1],
{8}1>3[12:1],{16}5<7[12:1],5,{8}1,5,{16}1>4[8:1],1,{8}5<8[8:1],1,5,
1>5[8:1],{16}5q1[12:1],5,{4}1q5<8[24:5],{32},,,,,,,,1,2,3,4,5,6,7,8,
{8}1x>4[8:1],{16}5x<8[8:1],5x,{8}1x,5x,{16}1x>5[8:1],1x,{8}5x<1[8:1],{4}1xqq2qq3qq4b[4:3],
{16}5x,5x,5x,5x,5x,5x,5x,5x,5x,5x,5x,5x,{4}C,
{16}A6,A5,A4,A3,{4}7/B7,{16}A6,A5,A4,A3,{4}8/B8,
{16}A6,A5,A4,A3,{4}1/B1,{16}A6,A5,A4,A3,{4}2/B2,
{16}A6,A5,A4,A3,{4}8/7,{16}A6,A5,A4,A3,{4}2/1,
{2}Cf/B7/B8/B1/B2/E7/E3,2v3<4-2b[16:3]/7-1p5v6[16:3],
{8}1,5,1-7[16:1],5,1-3[16:1],{16}5,5,{8}1,{16}5,5,
{8}1,4,1<7[16:1],5,1>3[16:1],{16}6,6,1,5,5,5,
4/5,4/5,4/5,4/5,6/3,6/3,6/3,6/3,2/7,7/2,7/2,7/2,8>2[8:1]/1<7[8:1],8/1,1/8,1/8,
{4}1-7<6[8:1]/8-2>3[8:1],1p4b[16:3]/8q5b[16:3],A8/A1,{48}E6/E4,{384}B6,B3,,,,,,B2,B7,{768},,,,,,,,,,,,,,{256}E8,E2,{16},,{64},,,{128},{1}1>8[8:13],
,7pp2[8:5],
{2}3v6[8:1],5w1[8:1],
{8}4/6,4,4/7,4,4/6,4,4/5,4,
5/3,5,5/2,5,5/3,5,5/4,5,
{16}5/4,5/4,4/5,5/4,6/3,6/3,3/6,3/6,7/2,7/2,7/2,2/7,8>3[8:1]/1<6[8:1],8/1,1/8,1/8,
{4}1v6[8:1]/8v3[8:1],1V74b[16:3]/8V25b[16:3],A8/A1,{48}E6/E4,{384}B6,B3,,,,,,B2,B7,{768},,,,,,,,,,,,,,{256}E8,E2,{16},,{64},,,{128},{8}1>3[12:1],
{16}5<7[12:1],5,{8}1,5,{16}1>4[8:1],1,{8}5<8[8:1],1,5,
1>5[8:1],{16}5<8[12:1],5,{4}1q5q1[24:5],1,{64}D2,A2,D3,A3,D4,A4,D5,A5,D6,A6,D7,A7,D8,A8,{32}D1,
{8}1x>3[12:1],{16}5x<7[12:1],5x,{8}1x,5x,{16}4x>1[8:1],4x,{8}8x<5[8:1],4x,8x,
1x>5[8:1],{16}5x<8[12:1],5x,{4}1xq5q1[24:5],{2}1x>4[8:1]*<6<1[4:1],
{8}5>2[8:1],{16}8<5[8:1],8,{8}5,8,{16}1q5[12:1],1,{8}6<8[12:1],1,6,
5>1[8:1],{16}1p5[12:1],1,{4}5p1<6[24:5],{32},,,,,,,,5,4,3,2,1,8,7,6,
{8}5x>2[8:1],{16}8x<5[8:1],8x,{8}5x,8x,{16}1x>5[8:1],1x,{8}5x<1[8:1],{4}1xqq2qq3qq4b[4:3],
{16}5x,5x,5x,5x,5x,5x,5x,5x,5x,5x,5x,5x,{4}C,
{8}5/8b-6[12:1],{16}5,5,{8}5/8-2[12:1],5,{16}4/8-6[12:1],4,{8}4,4/8-2[12:1],4,
3/8-6[12:1],{16}3,3,{8}3/8v2[8:1],3,4/8<5[32:3],{16}4,4,{32}4/8,3,2,1,,,,,{8}4x/1bx-3[12:1],
{16}4x,4x,{8}4x/1x-7[12:1],4x,{16}5x/1x-3[12:1],5x,{8}5x,5x/1x-7[12:1],5x,
6x/1x-3[12:1],{16}6x,6x,{8}6x/1xv7[8:1],6x,5x/1x>4[32:3],{16}5x,5x,{32}5x/1x,6x,7x,8x,,,,,{8}5/8b-6[12:1],
{16}5,5,{8}5/8-2[12:1],5,{16}4/8-6[12:1],4,{8}4,4/8-2[12:1],4,
3/8-6[12:1],{16}3,3,{8}3/8v2[8:1],3,4/8<5[32:3],{16}4,4,{32}4/8,3,2,1,,,,,{8}1-5[8:1],
{16}2,2,{8}1/7-3[8:1],8,{16}2-6[8:1],1,{8}1,2/7,7,
{16}6/3,6/3,6/3,6/3,7/2,7/2,7/2,7/2,8/1,8/1,8/1,8/1,{4}B8/B1/B7/E7/E8/E2/B2/E3/A7/A2,
E
