&title=Axium Crisis
&artist=ak+q
&first=0.61
&des=Tyuikl32
&lv_5=13+
&inote_5=(170)
{8}6,5,4,3h[8:3],,,B6,,{8}6,5,4,3h[8:3],,,B7,,
{8}7,5,4,3h[8:3],,,B8,,{8}7,6,4,3h[8:3],,,B5,,
{8}3/6pp1[2:1],5,6,4,,,,,{8}6/3,5,4,3-8[8:1],4,5,6,,
{8}2,2,6,6,1,5,1,8xh[16:17],4xh[16:15]b,,,,,,,,
{16}1x/5x,2x/6x<3[16:15],,,,,,,
{6},5,4,3v6[2:1]*-7[2:1],,,,,,
{16}3h[4:1],,,,5,4,6,,{6}7x,8x,1x,
{2}1xh[16:15],5xh[16:7],
{16}4x/8x,7x/3x>6[16:15],,,,,,,
{6},4,5,6-2[2:1],,,4,,,
{4}4-6[4:1],6-3[4:1],3-7[4:1],7-2[4:1],2V84[2:1],8h[4:1],,8-4[16:1]b,8bV24[1:2]/6-2[1:1],,,,,,
{8}8,7,6,5,5<1[1:1],,{4},,,4h[16:15],,8h[16:7],,
{16}7x/3x,6xV84[16:33]/2x,,,
{4},,,
{8},,1,1,3,3,2,2,3V15[2:1],,,,5x>5[1:1]*<5[1:1],,,,
{1},
{8}6h[4:1],5,4,B7,6h[4:1],5,4,B3,6h[4:1],5,4,E8,6h[4:1],5,4,3,
{8}3h[4:1],5,6,B2,3h[4:1],5,6,B7,3h[4:1],5,6,E2,3h[4:1],5,6,7,
{8}6/1-5[8:1],6,7,7,3/8-4[8:1],3,2,2,
{8}6/1-5[8:1],61,7,7,3/8-4[8:1],38,2,2,
{16}3,6,3,6,3,6,3,6,4,5,4,5,4,5,4,5,3,6,3,6,4,5,4,5,4>1[8:1],,,,1-5b[16:1],,,,
{8}7,7-4[16:1],8,2/7,2-5[16:1],1,8/2,8-4[16:1],1,2/8,2-5[16:1],6,5-1[16:1]b,,,,
{8}2/7,2-5[16:1],1,7/2,7-4[16:1],8,1/7,1-5[16:1],8,7/1,7-4[16:1],3,4-8[16:1]b,,,,
{8}7h[8:3],{16}8x,1,2,3,4h[4:1],,5x,6,7,8,1h[4:1],,5x,4,3,2,7h[4:1],,,,,,
{8}6V84[4:1]/5x,1-3[8:1]/8,{32}5h[16:1]x/6,,B5,C,B1,,,,
{16},,5x/6hx[4:1],4,3,2,1h[4:1],,8x,7
,6,5,4h[4:1],,3x,2,1,8,7,6,5,4,3,8x,7,6,5,4h[16:5]x,,,,,1b>8[4:6]*>4[8:6],,,,
{4},,,,,3,,3h[32:47],,8h[32:31],,,,
{32}2x/7x,1x-5[16:1]/6x,,,,,,,
{8}1b/7,,2,{16}2,3,4/7,,7,6,5/3-1[16:1],,2,,3/5V71[4:1],,6,,{8}3,3,4,4,
{8}2/8,2/8h[4:1],{16}1,2,3,4,7-5[16:1]/5-1[16:1],,,,7-1[16:1],,,,
{8}2/7-5[16:1],{16}2,,4V28[16:5],,{8}3,4/5-8[16:1],,5,,
{16}2,,2,3,4/8,7
,6,5,4-8[16:1]/1-5[16:1],,,,,,,,
{16}6,,6,7,8/4,3,2,1,8,5,6,7,8-4[8:1],,,,
{8}8b/2-5[16:1],1,8-5[16:1]/2,7,8/1-4[16:1],2,1/8qq5[2:1],7,1,1q5[8:1],2,1,,2,2>4[16:1],2,7<5[16:1],7,1q5[16:1],1,8p4[8:1]b,8,
{8}8/2>5[16:1],1,8<5[16:1]/2,7,8/1q5[16:1],2,7-4[16:1]/1,8,7/1pp4[8:7],2,6,6,5,5,8p4[8:1],8,8,,
{16}6h[2:1],,7,8,1,2,3,4,5>3[16:1]/7<5[16:1],,,,7/5-1[16:1]b,,,,,,
{16},2,4,2,4,,4<6[16:1]/2>4[16:1],,,,2/4-8[16:1]b,,,,,,
{16},7,2,7,2,7,
{8},,1-5[16:1]/8,,1/8-4[16:1],,1-4[16:1]/8,,8-5[16:1]/1,,8/1,{16},,7,
(142)
{16}1,8,1,8,2,8,1,7,
(132)
{16}7,1,1,8,8,2,2,1b>8[1:1],,
{4},,,,{8},
(170)
{1},
{8}6h[1:1],E6,E5,E4,,,,,4h[1:1],E5,E6,E7,E8,,,,5h[1:1],E2,E3,E4,,,,,3h[1:1],E8,E7,E6,E5,,,,{4}7<4[2:1],,B4,,2>5[2:1],,B6,,6>4[2:1],,B3,,3q5[2:1]/5h[2:1],,,,
{8}6h[4:1],4,4,{16}6,4,6h[4:1],,{8}4,4,,{8}3,{16}5,3,5,,3,,5,3,5,,3,,,,{8}4h[8:1],6,{16}6,4,6,,{8}4h[4:1],6,6,,{8}3,3,{16}5,3,5h[4:1],,{8}3,3,35,35,
{8}4,4,6,{16}6,4,6h[16:2],,{8}4,4,,5da,5h[4:1],3,3,{16}5,3,5,,3,,,,{8}6,6,64,,7,7,74,7,
{4}4h[32:31]x/8h[32:31]xb,,,,
{32}7x/3x,6x/2x,,,{8}2,4/7,6,5/2-5[2:1],,6,5,5>8[2:1],,6,,5,,7V15[2:1],,2h[4:1],,,4,4,3,3,7p4[2:1]/4h[2:1],7,,,,3h[4:1],,,
{16}6,4<1[4:1],6h[1:1],,,,{8},,,2,2,3,4h[8:7],,,6,6,5,5,,
{32}7/1,,,,1,,,,1x/7,2x,3x,,7,,,,7x/2,6x,5x,,2,,,,2x/1,3x,4x,,,1,,,1x<6[16:1]/4h[16:1],8x<5[12:1],7<4[16:1],,,,,
{4},,1h[32:7],
{32}3b/8x,2x/7x,,,,
{8}2,{16}2,3,4/7,6,{16}5-1[16:1]/3,,4,,{8}5/3>8[16:1],4,3/6,,3/6,{16}5,4,5,,3/6,,2-5[8:1]/7,,1/8,,
{8}2>5[8:1]/7,1v6[8:1],2,1,3,3/7,35,26,17,1,28,8,{16}3,4,2,,6,5,7V15[3:1],,
{8}3,3,2,2V84[3:1],6,6,7,7,
{8}3/6h[4:1],3,4,3,4/5h[4:1],3,4,3,2b/6,
{8}2/6b,45,45,3b/7,3/7b,45,45,
{16}1/5,2,3,4,5/1,8,7,6,5/8,1,2,3,4w8[16:1]b/8,7,6,5,{32}4bq6[4:3]*p2[4:6]/B4,Cf,B7/B8/B1,,,,,,
{4},,,,{16}4h[16:1],,,4,,,4,,,4,,,5q3[4:6]*p7[4:6],,,,
{1},{4},,,1q2[4:3]/5q6[4:6],,,,,{16}8h[16:1],,,8,,,8,,,8,,,
{4}5h[8:1],3h[8:1],6h[8:1],4h[8:1],{8}5h[8:1],,3<5[16:1],6,3/C,
