&title=愛属性
&artist=ピノキオピ
&first=0.045
&des=AmieZz
&clock_count=4
&lv_5=13+
&inote_5=(145){1},
{16}4,,5h[8:1],,3-1[8:1],4,,,3,5,,,
4-7[8:1],,2/6,,4/3,,,
2h[16:3],,,7-5[8:1],,4,,7,,3,,,,
2h[16:3],,,7h[16:3],,,4-2[8:1],,8,,4,,6,,,,
5h[16:3],,,2h[16:3],,,4-6[8:1],,1,,4,,3,,,,
1-5[8:1],,8,,1/7-4[8:1],,,,7p6[32:5]/2>5[8:1],,3,,2/7,,,,
4,6,5,6,3-6[8:1],,4,,3/7-1[10:1],,8,,5/7,,3,,
2,2,4,3,5-1[8:1],,3,,5/6-3[8:1],,7,,2/6,,,,
2,2,8,1,7-4[8:1],,6,,1-6[8:1]/7,,2,,1/8,,,,
7,7,1,8,2-5[8:1],,3,,2/8-4[10:1],,7,,1/8b,,,,
2,4,3,5,4,7,5,6,4,5,2,4,3,5,4,7,5,
6,4v1[8:1],,2>5[8:1],4,,,2,,8-4[8:1],,7,,1/8,,
2,2,4,3,5-3[10:1],,8,,5<8[8:1]/7,,6,,4/5,,3,,1/3,,
1>4[8:1],2,8<5[8:1]*v5[8:1],,1,,8,,,,
3,4,,5,6-4[10:1],,,1,6-1[8:1],,2-4[10:1],,6/3,,2,,,,,
5,3-8[8:1],,,8,3<6[8:1],,7-4[8:1],,3,,7,,,,8,,
7,1,8,2,4,3,6,5,7,1,4,3,5p7[4:1],4,6,5,7<8[3:1],,,,,,,,
7-5[10:1],,6,,7,,1,1,
4-7[8:1],3,,5,4-1[8:1],,8-5[8:1],,4,,8,,,,1/6,,
7-4[8:1],5,,2,7-2[10:1],,3-6[8:1],,7,,3,,,,4/8,,
7,5,6-8[10:1],,5,4,6,,3,3,1-4[8:1],,2,8,1p8[16:13],,7<2[16:11],,,,,,,,,,,,,,,,,
7,6,,2,4,,3,,8-4[8:1],,1,7,,6b,,
7-1[10:1],,8,,3/7-3[8:1],,4,,2q3[6:1]/7<5[10:1],,1,,2/7,,,,
4-2[10:1],,3,,8/4-8[8:1],,5,,6q7[6:1]/4>1[8:1],,5,,4/6,,,,
8-6[10:1],,7,,4/8-4[8:1],,5,,3q4[6:1]/8<5[8:1],,2,,3/8,,,,,,
6,6,4,5,2,4,3,5,4,7,5,6,4,5,
4-2[10:1],,3,,4-8[8:1]/8,,7,,4>1[8:1]/6q7[6:1],,5,,4/6,,,,
8-6[10:1],,7,,4/8-4[8:1],,5,,2q3[6:1]/8<5[8:1],,1,,2/8,,,,
4-1[8:1],,3,,4/7-4[8:1],,6,,3q4[6:1]/7>2[8:1],,,7,3,,,,1h[8:6]/5h[8:4],,
,,,,,,,,,,5,8,4,6,
3-8[8:1],,2,4,3,,7,,6-1[8:1],,7,5,6,,2,,
3v8[8:1],,2,4,3,,7,,6v1[8:1],,7,5,6,,3,,
4-1[8:1],,2,,4-7[8:1]/5,,6,,3/4>1[8:1],,2,,4/5,,
6,,7v4[8:1],,3,7,1-3[10:1],,8-4[8:1],,1-5[8:1],,8,,1,,6,,
7-4[8:1],,6,8,7,,3,,2-5[8:1],,3,1,2,,6,,
7v4[8:1],,6,8,7,,3,,2v5[8:1],,3,1,2,,
6,,8-3[8:1],,2,,8-5[8:1]/7,,6,,1/8>3[8:1],,2,,8/7,,
6,,4h[4:1]/5h[2:1],,,,,,4,,4,,5,4,6,4,5,3,
8-3[10:1],,7,1,8-5[10:1]*-5[10:1],,,8v3[10:1],7,,,8v5[10:1]*v5[10:1],1,,,
8-3[10:1],7,,,8-5[10:1]*-5[10:1],1,,,8v3[10:1],6,6,,,1,,,
2,4-7[10:1]*-7[10:1],,,4-1[10:1],6,,,4v7[10:1]*v7[10:1],2,,,
4v1[10:1],6,,,4,2>5[8:1],,8<6[10:1],,2,,8,,
5>1[8:1]*<8[10:1],,5,,5,,,,
8v3[10:1],,,8v5[10:1]*v5[10:1],1,,,8-3[10:1],7,,,
8-5[10:1]*-5[10:1],1,1,,8,7<4[10:1],,,7>2[10:1]*>2[10:1],8,,,
7,,4,4,,7<5[10:1]/3,,,,7,3,,
2,8,,1,,7,5,6,4,5,3,4,2-5[8:1],,8,2,,1p4[6:1],1,,,1>5[5:1]*>5[5:1],,,,,,,
7,7-5[10:1],,,4,7-2[8:1],,3-6[8:1],,7,,3,,,,,
8,4-2[10:1],,,7,4-8[8:1],,5-7[10:1],,4,,5,,,,
1,,
7,1,8,2,4,3,6,5,7,1,4,3,5p7[4:1],4,6,5,7>4[3:1],,,,,,,,
7-5[10:1],,8,,7,,3,3,4-6[10:1],,,2,4-8[8:1],,1-3[10:1],,4,,1,,,,,
4,8-6[10:1],,,2,8-4[8:1],,3-1[10:1],,8,,3,,,,1/5,,
2,4,3-1[10:1],,4,5,3,,6,6,8-5[8:1],,7,1,8q1[16:13],,
2>7[16:11],,,,,,,,,,,,,,,,,2,3,,7,6,,4/5,,1-5[10:1],,2,8,,6b,,
7-5[10:1],,6,,2/7-2[8:1],,1,,3q4[6:1]/7<5[8:1],,4,,3/7,,,,
7-1[10:1],,8,,4-1[8:1]/7,,2,,4p3[6:1]/6<1[8:1],,5,,4/6,,,,
2-4[10:1],,3,,2/6-1[8:1],,5,,2p1[6:1]/6>4[8:1],,3,,2/6,,,,,,
8,8,2,1,3,8,1,7,5,6,4,5,3,4,
2-8[10:1],,1,,2/5-8[8:1],,6,,2>5[8:1]/5q6[6:1],,3,,2/5,,,,
7-5[10:1],,8,,3-8[8:1]/7,,2,,3<5[8:1]/6p5[6:1],,5,,3/6,,,,
8-2[10:1],,5,,6-1[8:1]/8,,7,,2q4[6:1]/6<1[8:1],,3,,2/6,,,,
8h[8:6]/3h[8:4],,,,,,,,,,,,3,1,2,7,1h[1:1],,,,,,,,,,,,,,,,
5h[1:1],,,,,,,,,,,,,,,,3h[1:1],,,,4h[4:1],,,,,,,,4,,,,
5h[1:1],,,,,,,,,,,,,,,,4h[1:1],,,,,,,,,,,,,,,,
6h[1:1],,,,,,,,,,,,,,,,4h[1:1],,,,5h[4:1],,,,,,,,5pp5[8:3],,,,
5qq5[8:3],,,,,,,,1h[4:1],,,,,,
6,6,5v8[8:1],,,7,,,5,,1,,4,,2qq6[8:6],,,,2/6,,,,,,,,,,,,,,,,
7v4[8:1],,,3,,,1,,5,,8,,6qq1[8:6],,,4,6,,,,,,,,,,,,,,,,
4v1[8:1],,,6,,,4,,2,,5,,7pp3[8:6],,,,7/3,,,,,,,,,,,,,,,,
5v2[8:1],,,3,,,5,,8,,3,,6,,1qq6[8:7],,2pp5[8:6]*pp5[8:6]/6,,,,,,,,,,,,,,,,,,,,,,,,,,,,,,,,,,
4h[8:5],,,,,,,,,,5,,6,,
7-3[8:1],,6,8,7>3[4:1],,8,,6,,5,,4,,4/5,,
3-8[8:1],,2,4,3<7[4:1],,4,,1,,2,,3,,8/4,,
1-4[8:1],,2,8,1-6[8:1],,,1-5[8:1],2,,,1,6,,7,,
{32}8-4[8:1],4,3,2,
{16}1-5[8:1]/6,,8-6[10:1],,1-3[10:1],,8<3[4:1],,1,,8,,2,,
1v6[8:1],,8,2,1>5[4:1],,3,,7,,8,,1,,3/8,,
6v1[8:1]/4,,7,5,6>2[4:1],,4,,8,,7,,6,,5/1,,
2/4-1[8:1],,3,5,4-7[8:1],,,4-8[8:1],2,,,4,6,,5-7[10:1],,5/1-3[10:1],,
5>8[6:1]*>8[6:1],,1<4[6:1],,5,,,,,,2,4,3,6,
1-6[10:1],,2,8,1-4[10:1]*-4[10:1],,,1v6[10:1],2,2,,1v4[10:1]*v4[10:1],8,8,,
1-6[10:1],2,2,,1-4[10:1]*-4[10:1],8,8,,1v6[10:1],3,3,,,8,,,
7,5-2[10:1]*-2[10:1],,,5-8[10:1],3,3,,5v2[10:1]*v2[10:1],7,7,,
5v8[10:1],3,3,,5,7<4[8:1],,1>3[10:1],,7,,1,,
4<8[8:1]*>1[10:1],,4,,4,,,,
1v6[10:1],,,1v4[10:1]*v4[10:1],8,8,,1-6[10:1],2,2,,
1-4[10:1]*-4[10:1],8,8,,1,2>5[10:1],,,2<7[10:1]*<7[10:1],8,8,,
2,,4,4,,2>4[10:1]/6,,,,2,,6,5,7,,1/8,,
{32}1/8,7,6,5,
{16}2q5[4:1],,2/5,,,,7,,8,,
1,7,8,6,1,5,4,6,1,,7/8,,1/6pp4[8:4]*pp4[8:4],,3qq5[8:3]/5,,,,,,,,,,,,,,
4-1[8:8],,,,,,,,,,,,,,,,,,,,8<3[8:10],,,8,,,,,,,,,,,,,,,,,,,,
1,,,1>6[8:10],,,,,,,,,,,,,,,,,,,,,
7,,,7p4[8:7],,,,,,,,2q5[8:3]*q5[8:3],,,2,,,,,,,,,
1-4[10:1]/8-5[10:1],,,,,,
{1},,,
E
