&title=ニニ
&artist=テヅカ/Qayo/Mii
&first=0
&lv_5=14
&des=KA
&inote_5=
(174){4},{2},{16}E2,E6,E4,E8,
{1}1x>1[4:5],
{8}1h[2:1],{4},,,{16}E4,B4,
{8}B5,{16}E8,B8,{8}B1,{16}3x,4x,{8}5x,6,5,4,
3,{16}5,4,{8}5,3,{2}3<6[8:1],
{8}8,8,1,7,1,1,8,2,
7,6,2,3,5,5,4,4,
{4}3/5,7/4,{8}1/8,{16}1>8[8:3],8,{8}1,1h[2:1],
{2},{16}E8,E7,E6,E5,E4,E3,E2,E1,
{8}2/8x,3,4,5-3[8:1],,8,7,6-2[8:1],
,7-1[8:1],6x,5x,4w8[8:1],{4},{16}E8,B8,
{8}B1,{16}E4,B4,{8}B5,{16}6x,5x,{8}4x,3,4,5,
6,{16}4,5,{8}4,6,{4}6>3[8:1],2/6,
1h[4:3],3,5,7,
{8}2/8,3,4/5,6,7/1,2/4,3/5,4/6,
8/7,1,2/8,7,5/6,5/4,4/3,1/8,
7b/8h[4:1],{32}E7,B6,B5,E5,{8},2b/1h[4:1],{32}E3,B3,B4,E5,{8},8-4[8:1],2/6,
{1}4h[1:2]/8pp2pp4pp6pp8b[4:13],
{4},,,,,,,,,,,5b/4b-1[8:1],
{2}4b/5bh[2:1],6h[2:1],
7h[2:1],8h[2:1],
{1}1s5[1:1],
{2},{16}E2,E6,E4,E8,{4}C,
8b/1b,{16}7V51[4:1],5,7,5,{4}7,2-4[8:1],
2/5-7[8:1]*-1[8:1],5,{16}8-4[8:1],7,6,5,{4}8,
5b/3b,{12}6,8,7,2,4,3,8-3[8:1],{6},{8}8-5[8:1],
{16}4,4,{8}8z4[4:1],{16}4,4,{2}8,
{4}1/8,{16}2V48[4:1],4,2,4,{4}2,5-8[8:1],
{2}5/2-6[8:1]*-5[8:1],{12}8-4[8:1],1,7,8,{6},{4}5/3,
{12}7,5,6,2V85[4:1],4,3,2,{6},{24}1,
2,3,4,5,6,8,1,2,3,4,5,{2}8b-4[8:1],
{4}5b/3b,{16}3V15[4:1],1,3,1,{4}3,8-4[8:1],
{2}8V25[8:1]/4V61[8:1],{16}4x/8x-4[8:1],7x/3x,6x/2x,5x/1x,{4}8,
3/5,{12}2,8,1,6,4,5,1-6[8:1],{6},{8}1-4[8:1],
{16}5,5,{8}1s5[4:1],{16}5,5,{2}1,
{4}5b/4b,{16}7V51[4:1],5,7,5,{4}7,4,
{12}8-4[8:1],2,6,8,{6},{16}6V84[4:1],4,6,4,{4}6,
3-5[8:1],3-8[8:1]/7-4[8:1],3b-6[8:1]/7b-2[8:1],7bx/3bx,
{16}8,7,6,5,4/8,1,2,3,8,4,7,3,6,2,5,1,
{1}8bx/4bxp6pp8p2pp4-8b[4:13],
,,,{2}1xq7[2:1],
B8,
5xq3[2:1],B4,
{1}4bqq2q8b[4:3]*pp6p8b[4:3],
{4},E1,C,E5,
{8}5/4,5,3,3,6,5,4,3,
4,4,5,5,6,5,4,3,
4/5,4,6,6,3,4,5,6,
4,4,5,5,3,4,5,6,
4/6,5,4,3,3/5,4,5,6,
5/4,3,4/5,6,4/3,2,5/6,7,
4/2,1,5/7,8,3/4,1/7,5/6-4[8:1],8/2,
{4}6/3-7[8:1],3/8-2[8:1],{2}8/1w5b[8:1],
{8}1/8,{16}2>5[8:1],1,{8}2,2h[4:1],,1,8,7-5[8:1],
,7v4b[8:1],8<3[4:1],7,8,{4},{16}7,8,
{8}7,{16}2,1,{8}2,{16}6,8,{8}5-1b[8:1],3/7-4[8:1],5,7,
2,{16}4,3,{8}5,{16}1,7,{8}5-2[8:1],8-6b[8:1],5,8,
1,1,2/4,3/5,6-4[8:1],7,8,1,
2-8[8:1],3x,7-3[8:1],6x,4-6[8:1],C,4,7,
{4}2h[8:1]/8h[8:1],{8}3/5,4/6,5/7,{16}8<1[8:3],1,{8}8,8h[2:1],
{2},{16}1,2,3,4,5,4,3,2,
{8}8/1,{16}7<4[8:1],8,{8}7,7h[4:1],,8,1,2-4[8:1],
,2v5b[8:1],1>6[4:1],2,1,{4},{16}2,1,
{8}2,{16}7,8,{8}7,{16}3,1,{8}4-8[8:1],6/2-6b[8:1],4,2,
7,{16}5,6,{8}4,{16}8,2,{8}4-7b[8:1],1-3[8:1],4,1,
{4}8h[4:3],6,4b,2bh,
{8}7/1,6,4/5,3,8/2,3,5/4,6,
7/1,8/2,1/3,4/2,5/3,4/6,5/7,8/6,
{4}1/7b>1[8:1],7/1,4bw8b[8:1],4,
{16}2,3,4-8b[8:1],5,{8}6,4/7-5b[8:1],,1/7,,8/2,
{16}7,6,5-1b[8:1],4,{8}3,5/2-4b[8:1],,2/8,,7/1,
{16}2,3,4-8b[8:1],5,{8}6,4/7-5b[8:1],,7/1-3b[8:1],,7/1,
,{16}4,4,{8}4,3/5,2/6,7/1,{4}8<5[8:1],
{16}5,4,3-7b[8:1],2,{8}1,3/1-5b[8:1],,1/8,,5x/4x,
7,6/8,2,1/3,6,5/7,5/4,4/2,
7/1,{16}3,4,{8}3,7,8/2,{16}6,5,{8}6,2,
{4}7<4[8:1]/1>4[8:1],1v4b[8:1]/7v4b[8:1],7/1,{32}1x,2x,3x,4x,5x,6x,7x,8x,
{1}1b-5b[4:5],
,{4}6/4,
5/3,{2},{4}7/1,
{8}2/8,{16}1,1,{8}1,8/2,7/3,6/4,
7/1,{16}8-4b[8:1],8,{8}8,8/2>6b[8:1],,1/2,,7,
8/2,{24}6,5,6,{8}5,8,1/7,{24}3,4,3,{8}4,1,
{16}8,3,6,1,{8}7,8b-4b[8:1]/4b-8b[8:1],,8bpp2p4[8:7]/4bpp6p8[8:7],,8bx/4bx,
{1},2h[4:7]/6h[4:7],
,{2}4pp6b[4:3],
{4}E1,E2,
{2},5qq3b[4:3],
{4}E1,E8,,{8}6,5,
{4}7,8,1,2qq7b[4:3],
{1},{8}6,
{4},{8}5,{4},4bz8[8:25],
{2},,,,,4b-8b[8:1],
E
