&title=ばーちゃるめいどさん♡じゅーいちがた
&artist=知田そら feat. 重音テト
&first=0.041
&des=57qx55uQ
&lv_5=12+
&des_5=57qx55uQ
&inote_5=
(155){4},8h[8:1]/1h[8:1],2h[8:1]/7h[8:1],6h[8:1]/3h[8:1],
4h[8:1]/5h[8:1],3qq5[8:5],6,6,
6,7qq1[8:5],2,2,
2,3V51-3[8:5],6,7,
8,7p2[4:1],4,3p5[4:1],
6,7>2p6[8:5],5,4,
3,2<7q3[8:5],4,5,
6,7v5<2[8:5],2,3,
4,5V31[4:1]*-7[8:1],,8xV64[4:1]*-2[8:1],
{8},,3xh[8:1],4x,3xh[8:1],5,3h[8:1],6,
3h[8:1],7,8h[8:1],1,8h[8:1],2,8h[8:1],3,
8h[8:1],4,5h[8:1],6,5h[8:1],7,5h[8:1],8,
5h[8:1],1,8h[8:1],4,8h[8:1],3,2h[8:1],7,
2h[8:1],6,3,4,5/2,3,6,5,
4/7,6,2,1,3/8,2,7,8,
6/1,7,8/2,2/8,7/1,7/1,6/2,2/6,
5/3,5/3,{16}4,6,4,6,5,7,5,7,6-2[8:1],8,6,8,
{4}6x,{8}7b-1b[8:1],7,2-6[8:1]*-6[8:1],2,5-3[8:1],5,
2,2,1>4[8:1],5,1-6[8:1],6,1q5[8:1],5,
1,7,{4}6pp5[4:1],{2}4qq5b[4:1],
{8}6,6,7-1[8:1],4,7-4[8:1],3,7V15[4:1],2,
7,3,4<7[8:1],3,2,2,1>4[8:1],8,
7,7,6<2[4:1],6,2v4[4:1],2,{4}3h[8:1],
{8}3h[8:1],,,5-7[8:1]*-1[8:1],5,5,,2x-4[8:1],
2,2,5v8[8:1],3-1[8:1],5,3,{4}7h[4:1],
{8}8b,8b,{4}1-4[8:1],6-3[8:1],2-7[8:1],
5,{8}3v1[8:1],7v5[8:1],3,7,{4}2h[4:1],
8h[4:1],3<6[4:1],6qq3[8:3],7-1b[8:1],
{8},,2-5[8:1],2,6,7,8-4[8:1],8,
1,2,{4}3,{8}4-2[8:1],6v1[8:1],4,6-4[8:1],
,6,3,3,{2}2q5[8:3],
{4},6h[4:1],{8}5,5,7,7,
4,4,5-7[8:1],6,5/4,3,{24}8,2,{6}8,
{8}7/1,{16}6x/2x,3x/5x,{4}4xh[1:1],,,,,,,,5h[1:1],
,,,4h[2:1],
,6h[2:1],
,B6,,,,B7,
,,,B8,
,,,B1,
,B2/E3/B3,
,5/6<2[2:1],{8}4,4,{4}A3/B3,
{8},4,{4}5/4>8[2:1],{8}6,6,{4}B7/A7,
,6qq3[2:1],{8}2,2,{4}B1/A1,
,3/4q1[4:1],,2>5[8:1],
,6-8[8:1],6/5,6v1[8:1],
6/4,2-4[8:1],2/1,2v5[8:1],
1/2,6v8[8:1],6/5,3v1[8:1],
{1}3/4<4b[4:3],
{8},,2b<7b[8:1],2,6q3[8:1]*q3[8:1],6,4v5[8:1],4,
6,6,8<5[8:1],5,8-3[8:1],3,8p4[8:1],4,
8,3,{4}1pp1[4:1]*qq8[4:1],1,D1,
{8}7,7,2-8[8:1],6,2-5[8:1],5,2V84[4:1],6,
2,7,6>3[8:1],7,8,8,2<7[8:1],3,
4,4,5v3[4:1],5,3>7[4:1],3,{4}4h[8:1],
{8}4h[8:1],,,2-4[8:1]*-6[8:1],2,2,,8-5[8:1],
8,8,3v1[8:1],4-7[8:1],3,4,{4}2h[4:1],
{8}1b,1b,{4}8<4[4:1],4>8[4:1],8p1[4:1],
C,{8}3x<6[8:1],3,7,7,{4}8V64v7[4:1]*V24v1[4:1],
{2}8,{4}8-4[8:1]/2-4[8:1],2/8<5[8:1],
8/1h[4:1],{8}6xpp5[4:1],6,3,3,4qq5b[4:1],4,
6,6,{4}7,{8}8-6[8:1],2-5[8:1],8-4[8:1],2<8[8:1],
8,2,5pp5b[8:3]*qq4[8:3],5,{2}5,
{4},3h[4:1],{8}4,4,2,2,
5,5,4/6-2[8:1],7,{4}6/4>1[8:1],{24}8,7,{6}6,
{8}5/4,{16}6,5,{8}7b<4[8:1],8,1,2v5[8:1],2,5,
6-1[8:1],6,5,4-8[8:1],4,5,7-5[8:1],1-3[8:1],
7,1,4p8[8:1],5,6,7p3[8:1],1,1,
2-5[8:1],2,1,8-4[8:1],8,1,2>4[8:1],8<6[0.3871##0.1936],
2,8,(110)5>2[8:1],5,5,8<5[8:1],8,8,
2<7[8:1],2,2,5>2[8:1],5,5,1-4[8:1],8-5[8:1],
1,8,3h[8:1],4h[8:1],5h[8:1],6h[8:1],2h[8:1],1h[8:1],
8h[8:1],7h[8:1],{4}2z6[4:5],
E
