&title=bloomin' feeling
&artist=Ryu☆
&first=0
&des=yjsnping
&lv_5=13+
&des_5=
&inote_5=
(181){4},{16},1,8
||这是一个标记~
,1,,2,,,3,6,3,6,
3,6,3,6,{12}3,6b,,{4}2,{8}7,2,
1,5,{4}1,8,3b/6b,
{12}4,5,{6}4
||这是一个标记~
,{24}3,,,3,,,,1,,8,,1,,,,2,
,,{12}2,,{4}2h[4:1],{8},2h[24:5],,,,,{4}1,
8,{8}4,5,
4,5,{4}3,6,1/8,
,2,2,{8}7,7,
7,7,7,2,2,2,2,2b,
{4}7b,2,2,{8}3,4,
2,7,{4}1b-5[4:1],1bw5[4:1],1b,
,1,8,{8}2,7,
3,6,2,7,1b,1b,{4}1b,
,7,7,{8}6,5,
7,2,{4}8b-4[4:1],8bw4[4:1],8b,
,1,{8}1,3,4,2,
6,5,7,2,1,3,{4}8b,
,1>3[8:1],1,{8}6,6,
4,4,{4}8b<4[0.2486##0.3315],{16},4b>8[0.1657##0.4144],,,,8b<4[0.2486##0.3315],,,,,,,,2,
,,,2,,,{8}4,5,
3,6,1,8,2,7,{4}4b,
,6,6,{8}2,1,
3,4,1,8,4,5,{4}8,
,3,3,{8}3,4,
2,5,4,3,5,2,{4}5b,
{8},,8,{16}3,4,{8}3,4,5,6,
7,8,{4}1>4[0.1657##0.2486],{8},8<5[0.1657##0.2486],{16},,,,,3,
4,3,,2,,1,,2,,1,,2,,1,
,2,,1,,8<5[0.1657##0.2486],,,,,,,{4}1>4[0.1657##0.2486],
{16},,,,5,5,5,5,,3,4,3,,7,,7,
,7,,7,,1>5[16:3],,,,5<1[0.2486##0.2486],,1,,,,,,6,
5,6,,4,,5,,6,,7,,8,,1,
,2,,3,,4h[8:1],,,,4h[8:1],,,,,,5b,
,5b,,,,3,,4,,3,,5,,3,,6,
,3,,7,,3,,8,,3,,1,,3,,2,
,3,,4,,3,,5,,3,,6,,2,,7,
,1,,8,,2,,7,,3,,6,,4,,6,
,5,,6,,7,,6,,8,,6,,1,,6,
,2,,6,,3,,6,,4,,6,,5,,6,
,7,,6,,1,2,3,4,5,6,7,8,1,2,3,
4,5,6,7,8,1,2,3,4,5,6,7,{8}8,1b,
{4}1b,2,{16}8,8,{8}8,2,2,
{4}2,7h[4:1],{16},,,6h[4:1],,,,,,2,
2,2,,3,,4,,2,,6,,5,,7,
,1,,,{4}5h[4:1],{16},,,3h[4:1],,,,,,,,,{8}7,
{16}1,1,{8}1,6,5,7,
2,1,3,3,3,3,{4}3b,
{16},,,,3,4,{8}2,{16}6,5,{8}7,{16}1,8,1,8,
1,8,1,8,1,8,1,8,1h[16:3],,,,,,,8bh,
,7bh,,,,1/2b,,,,8/7b,,,{8}3,3,
{16},6,,6,,3b/4,,,,6b/5,,,,3b/4,,,2,
2,{8}2,{16}8,7,{8}8,{16}2,1,{8}2,{16}6,5,{8}6,
{16}3,4,{8}3,7b,2b,6b,3b,{4}4b/5b,
{8}8,8,1,2,3,4,5,6,
7,8,{12}1,2,3,4,5,6,7,8,1,
{16}2,3,4,5,6,7,8,1,2,3,4,5,6,7,8,1,
{24}2,3,4,5,6,7,{32}8,1,2,3,4,5,6,7,8,1,2,3,4,5,6,7,{16}8-4[0.4144##0.0829],,,8bx,
,8bx,,,,1b-4[0.2486##0.0829],,,{4}1b/8b,{8}2,5,
8,4,{4}1b-3[8:1]*-5[8:1],1b-4[8:1]*-6[8:1],1b,
{16},4,,5,,2,,6,,4,,8,,3,,7,
,1,,5,,1/3,,8/6,,2/4,,7/5,,2b/7b,,,,3,
,3,,2,,1,,6,,5,,2-6[0.1657##0.0829],,2,
,7-3[0.1657##0.0829],,7,,1w5[0.5801##0.0829],,1,,1,,,{4}1b,
{8}3,6,3,7,1,1,5,3,
3,7,7,1/8,7/2,3/6,{4}4b/5b,
,1b/2b,8b/7b,{8}2,2,
7,7,{16}1h[16:1],,,5h[16:1],,,,,{4}3,
{16}7,,,,,3,,,{4}7,{8}4,4,
8,8,1-3[0.1657##0.0829],1-7[0.1657##0.0829],1-4[0.1657##0.0829],1-6[0.1657##0.0829],{4}1b,
{8}4,5,{16},2,,,{4}2,{8}6,8,
3,1,1-3[8:1],8-6[8:1],1-5[8:1],8,{4}1,
5x,1x,1x,{32}8,7,,,1,2,,,7,
6,,,2,3,,,,,{16}3/4,,6/5,,2/3,,7/6,,1/8,,1-5[0.4972##0.1657],
,1bx,,,,1b,
E
