&title=Parallel Hearts
&artist=FictionJunction
&first=-0.145
&des=晨光之处
&lv_5=13
&des_5=
&inote_5=(82.5)
{4}
,,
{384}
2b>8[4:9]*>8[4:9],
||
4/4
{16}4bv1[16:2],,,,
,,,,
1v3[16:2],,,,
,,,,
{16}2v1[16:2],,,,
,,,,
,,,,
,,,,
{16}1-5[16:2],,,,
,,,,
4>8[8:1]*<8[8:1],,,,
,,,,
{16}2h[16:8],,,,
4,,,,
1h[16:4],,,,
{16}8,,,,
(165)
{16}2b>8[16:8]/7b<1[16:8],,,,
,,,,
,,,,
,,,,
{16}3/7,,5,,
6,,2pp4[24:4],,
,,7,,
,,1<5[16:4],,
{16},,3,,
2,,1pp2[16:4],,
,,8,,
7,,6,,
{16}1,,8,,
7,,5/6-1[16:2],,
,,5/6,,
,,8/4,,
{16},,3,,
2,,1>4[24:4]/5p8[24:4],,
,,,,
,,,,
{16}5,,6,,
7,,7qq5[24:4],,
,,2,,
,,8>4[16:4],,
{16},,6,,
7,,8qq7[16:4],,
,,1,,
2,,3,,
{16}8,,1,,
2,,3h[16:8],,
,,1,,
8,,7,,
{16}2,,,,
2h[4:1],,,,
4,,,,
4h[4:1],,,,
{16}5,,5qq3[6:1],,
,,6,,
6,,,,
8,,8,,
{16}2,,,,
2h[4:1],,,,
4,,,,
4h[4:1],,,,
{16}5,,5v2[6:1],,
,,6,,
6,,,,
2,,2,,
{16}7,,,,
7h[4:1],,,,
5,,,,
5h[4:1],,,,
{16}4,,4pp6[6:1],,
,,3,,
3,,,,
1,,1,,
{16}7,,,,
7h[4:1],,,,
5,,,,
5h[4:1],,,,
{16}4,,4-8[6:1],,
,,3,,
3,,,,
18,,27,,
{16}3,,,,
3h[4:1],,,,
8,,,,
8h[4:1],,,,
{16}5,,5v2[8:1],,
,,7,,
7-5[8:1],,,,
1,,1,,
{16}4,,,,
4h[4:1],,,,
2,,,,
2h[4:1],,,,
{16}1,,1-5[8:1],,
,,3,,
3-1[8:1],,,,
7,,7,,
{16}68,,,,
78,,,,
24,,,,
34,,,,
{16}6,,6-8[8:1],,
,,1,,
1-5[8:1],,,,
6,,6,,
{16}47,,,,
35,,,,
27,,,,
46,,3,,
{16}1/2,,8,,
5/7,,6,,
3,4,3,5,
1b,,,,
{16}5h[16:4],,,,
1,,,,
3,,4,,
2-7[16:2],,,,
{16}8h[16:4],,,,
6,,,,
4,,1,,
3b-8[16:2],,,,
{16}6h[16:4],,,,
7,,,,
1,,8,,
2-5[16:2],,,,
{16}6h[16:4],,,,
3,,,,
5,,4,,
6b-1[16:2],,,,
{16}3>8[16:2],,,,
7,,,,
5,,4,,
3-8[16:2],,,,
{16}4<7[16:2],,,,
8,,,,
2,,3,,
4-1[16:2],,,,
{16}6-3[16:2],,,,
4-8[16:2],,,,
5-2[16:2],,,,
3-7[16:2],,,,
{16}4-1[16:2],,,,
2-6[16:2],,,,
1,,8,,
7,5,6,4,
{16}1b-5[16:2],,,,
1/8,,,,
7-3[8:1],5,6,,
7/1-6[8:1],,,,
{16}5-1[16:2],,,,
5/4,,,,
3-7[8:1],8,2,,
3/6>3[8:1],,,,
{16}1-5[16:2],,,,
1/5,,,,
7,7,8,,
1-4[8:1]/6,,,,
{16}1-6[8:1],,,,
1-5[8:1],,,,
1>4[8:1]*<6[8:1],,7,,
1,,,,
{16}5>2[8:1],,,,
56,,,,
8-4[8:1],,1,,
8,,,,
{16}8>3[8:1],,,,
78,,,,
5,,4,,
26,,,,
{16}3h[4:1]/4,,,,
8,,,,
2v5[8:1],,2,,
7,,,,
{16}6h[4:1]/5,,,,
2,,,,
5,,5,,
3,4,2,5,
{16}8b-4[16:2],,,,
8/1,,,,
2v5[8:1],4,3,,
2/1<6[8:1],,,,
{16}4-8[16:2],,,,
4/5,,,,
6v1[8:1],8,7,,
6/5-2[8:1],,,,
{16}8-4[16:2],,,,
8/4,,,,
2,2,1,,
3/8<5[4:1],,,,
{16}5v8[16:4],,,,
8>3[16:3],,,,
3,,4,,
5v2[8:1],,,,
{16}8-4[8:1],,,,
1,,,,
2<7[8:1],,2,,
6v3[8:1],,,,
{16}4>1[8:1],,,,
5,,,,
7-3[8:1],,7,,
8,,,,
{16}2-4[8:1]/4-1[8:1],,,,
2b/4b,,,,
5,,7,,
6b/8b,,,,
{16}2-5[8:1]/4-8[8:1],,,,
2b/4b,,,,
7,,4,,
1b/8b,,,,
{16}4/2-6[8:1],,,,
6-2[8:1],,,,
8,,8,,
17,,6,,
{16}45,,3,,
27,,,,
1,6,2,5,
3,6,4,7,
{16}2b>1[8:14]*v1[1:2],,,,
,,
