&title=新しい季節に
&artist=poppin*party
&first=0
&des=DJL2374
&lv_5=13
&des_5=DJL2374
&inote_5=
(125){4},{2},,,{4}3b/6b,
{8}1-5[8:1],8,1,{16}8-4[8:1],7,{8}6h[4:1],8,,3b/5b,
,{16}2,1,{8}8,{16}6,5,{8}4-8[8:1],3-1[8:1],4,3b,
,8-4-6[4:1],1,{16}8/A1,D2,A2,D3,{8}A3,,7/4,
{16}6/3-7[8:1],5/2,{8}4/1-4[8:1],3x,1x,{4},{8}4-2[8:1],8-6[8:1],
4b,8,5,{16}5-1[8:1],6,5,6,{8}5,7,8-4[8:1],
,8,3,{16}3-8[8:1],4,3,4,{8}3,5-8[8:1],1,
5b,{16}1-5[8:1],2,{8}3h[8:1],1,3,{16}3-1[8:1],4,{8}3,3,
{16}5b,6,{8}7-1[8:1],{16}5b,6,{8}7,2b,{16}3,4,{8}5,{16}6,5,
{8}4b-7[8:1],3-8[8:1],4,3,6-8[8:1],5,4/6,3,
{16}2,1,{8}2,1/8,{16}7-3[8:1],8,7,8,{8}7,4-8[8:1],5,
4b,5,6,7,8,1,2,3,
{16}4>8[8:1],5,{8}4,4,5,6,7,{4}8-6[16:3],
{16}8b,{8},{16}4b,{8},5b,{16}4,5,{8}4,5,4,
{16}5b-7[8:1],4,5,4,{8}5,4,{16}3h[16:3],{8},{16}8h[16:3],{4},{16}2-4[8:1],
1,2,1,{8}2-6[8:1],1,{2}2/3h[4:1],
{16}4b-2[8:1],5,4,5,{8}4,5,{16}6h[16:3],{8},{16}1h[16:3],{4},{16}7-5[8:1],
8,7,8,{8}7-3[8:1],8,{48}7/6h[48:7],{4},{48}6,{24},,,,,{8}6b/2b,
7/3>1[8:1],4,3/7<5[8:1],8,{16}7/3,2,{8}1h[4:1],4h[8:1],
,{16}2/5-2[8:1],6/3,{8}4/7pp5[2:1]*pp5[2:1],5,{2}7,
{8}1>4[8:1],2,1/5<8[8:1],6,5/1>4[8:1],2,1,8h[8:1],
,{16}4,8,4,8,{8}4,{4}2bh[8:3]/6b-8[8:1],6b,
{16}3h[16:3],{8},{16}8h[16:3],{8},1-5[8:1],2,1/8-4[8:1],7,8/1,
3,{16}3,2,1,8,{8}7-2[8:1],{4}7,{8}5-7[8:1],4,
5/3-1[8:1],4,3,{16}5,6,{4}7-1[8:1],{8}7,3,
7,{16}1,2,{8}3-5[8:1],6-2[8:1],3,6,4,{16}3,4,
{8}3,{16}6,5,{8}6,2,6,{16}3-1[8:1],7,3,7,{8}3,
{16}8-4[8:1],7,{8}6h[8:1],8,{16}5-1[8:1],6,{8}7h[8:1],5,8,{16}3,4,
{8}5h[8:1],6-8[8:1],4-2[16:3],6,{16}4,{8},{16}6,{8},2,
,1b/5b,2b/6b,3b/7b,{4}4b/8b,3b/6b,
{8}8-4[8:1],1,8,{16}1-5[8:1],2,{8}3h[4:1],1,,6b/4b,
,{16}7,8,{8}1,{16}3,4,{8}5-1[8:1],6-8[8:1],5,6b,
,2/6,{16}3/7,3/7,,8/1,,6/2,{8}6/2,3>8[8:1],5/4,
3,{16}7,6,{8}5,3/6,{16}2,1,,7,{4}8,
{8}4-8[8:1],5,4,{16}5-1[8:1],6,{8}7h[4:1],5,,2b/8b,
,{16}3,4,{8}5,{16}7,8,{8}1-5[8:1],2-4[8:1],1,2b,
,3/7,{16}2/6,6/2,,5/4,,3/7,{8}3/7,3,7,
3>8[8:1]/7<4[8:1],{16}1/5,2/6,{4}3/7,{16}1-5[8:1],5,1,5,{4}1,
{8}4b/6b,3,6,{16}3,3,6-8[8:1],2,{8}2x-4[8:1],6,2x,
7,3x/B8/E8/B7,2,1x/B6/E6/B5,{16}3/A7,3/D7,3/A6,3/D6,{4}3/A5,
{8}5,4,{16}5,4,{8}5,{16}6b/2b,{8},{16}7b/3b,{8},4b/8b,
,3b/7b,7b/3b,3b/7b,7b/3b,7b/3b,8-6[8:1],4-2[8:1],
8b,4,1,{16}1-5[8:1],2,1,2,{8}1,3,4-8[8:1],
,4,7,{16}7-4[8:1],8,7,8,{8}7,1-4[8:1],5,
1b,{16}5-1[8:1],6,{8}7h[8:1],5,7,{16}7-5[8:1],8,{8}7,7,
{16}1b,2,{8}3-5[8:1],{16}1b,2,{8}3,6b,{16}7,8,{8}1,{16}2,1,
{8}8b-3[8:1],7-4[8:1],8,7,2-4[8:1],1,8/2,7,
{16}6,5,{8}6,5/4,{16}3-7[8:1],4,3,4,{8}3,8-4[8:1],1,
8b,1,2,3,4,5,6,7,
{16}8<4[8:1],1,{8}8,8,1,2,3,{4}4-2[16:3],
{16}4b,{8},{16}8b,{8},1b,{16}8,7,{8}6,2b,6b,
E
