&title=DEAR MY WAKER
&artist=米倉千尋
&first=-0.82
&des=GAHOU
&lv_5=13+
&inote_5=(140)
{1},
{16}6h[16:3]/5h[16:3],,,,,,7h[4:1]/4>2[8:1],,,,,,{24}7,6,5,4,,,
{16}3h[16:3]/4h[16:3],,,,,,5/2q5[8:3],,,,4,,5,,6,,
{16}7h[16:3],,,,,,8h[4:1]/5>2[8:1],,,,,,{24}7,6,5,4,,,
{16}3h[16:3]/4h[16:3],,,,,,5/2qq5[8:3],,,,,,,,,,
{16}8b,,,6,5,,5<7[8:1]/7,,4,,5,,{24}2,3,4,5,,,
{16}7/5,,,6,5>2[8:1],,7/4,,8<5[8:1],,1,,2,,3,,
{16}2b/4,,,3,4,,4>2[8:1]/2,,5,,4,,{24}7,6,5,4,,,
{16}2,4,3,4,2h[8:1],,8,2,7,3,6,4,5,4,5,3,
{4}6/2qq5[8:5],,7-3[8:1],7,
{1}4/2-7[8:5],
{1}6-3[8:5]/8,
{4}8-5[8:1]/5,,4-1[8:1]/1,,
{4}8/2v7[8:3],,5,,
{4}1>6[8:5]/5,,5,,
{4}7>5[8:5]/4,,3,,
{4}2>1[8:5]/6,,7,,
{4}6<1[8:1]/2>5[8:1],,8-4[8:1],1b,
{16}5/1,,,3,4,,4/2h[4:1],,,1,1,,3-5[12:1],,8,,
{16}7,,,6,5,,4/7h[4:1],,,8,8,,6-4[12:1],,1,,
{16}2,,,3,4,,4/2h[4:1],,,1,1,,3-5[12:1],,8,,
{16}7,,,6,5,,4/7h[4:1],,,8,8>3[8:1],,5,,6,,
{16}7-4[8:1],,,4,7-1[8:1],,,2,7,,2,,3/4,,4/5,,
{16}5-2[8:1]/6,,,7,5,,8<4[4:1],,,,1,,2,,3q1[4:1],,
{16},,5,,6,,7q5[4:1],,,,4,,3,,2,,
{16}7b/1b,,,5,4,,7b/3b,,,6,5,,7,8,7,8,
{16}6h[2:1]/1h[2:1],,,,,,,,,,4b/2b,,,6b/5b,,,
{16}8h[2:1]/2h[2:1],,,,,,,,,,5b/3b,,,7b/5b,,,
{16}4bq5[8:3]/2h[2:1],,,,,,,,,,,,4<3[8:3],,,,
{16}7,,,,,,,,6,4,6,4,7,5,7,5,
{16}8,,,6,5,,5/8h[4:1],,,5,5,,6/4,,5/3,,
{16}2/4,,,3,4,,5/1h[4:1],,,4,4,,5/3,,6/4,,
{16}7,8,7,8,5,4,5,4,1,2,1,2,7,4,7,4,
{16}6<4[2:1],,,,,,,,,,,,,,5/1,,
{16}7-5[8:1]/3,,,4-7[8:1],4,,,8-4[8:1],8,,,3-8[8:1],3,,,1,
{24}1,,,7,6,5,{16}4,,6/2b>5[8:1],,,,1,,8,,7,8,
{16}6<3[4:1]/1,,,2,6,,4,,,,5<4[8:3]/4,,6,,7h[8:2]/5,,
{16},,,,6,,8/1,,2,1,2,1,2,8/3,,,
{16}4-2[8:1],,,1-4[8:1],1,,,5-1[8:1],5,,,8,8,,6h[4:1],,
{24}2,3,4,5,,,{16}7,8,6b>3[8:1]/1,,,,8,,1,,2/1,,
{16}8/3>8[8:1],,,7,3,,6,,5-1[8:1]/6,,4,,3,3,,,
{16}2>5[8:1]/1,,,1,2,,8,,7,8,7,1,7,2,7,3,
{16}7-5[8:1],,,4-7[8:1],3,,,8-4[8:1],1,,,3,2,,1h[4:1],,
{24}5,6,7,8,,,{16}2,1,3b<1[4:1]/8,,,,1,,2,,3,,
{16}5-2[8:1]/4,,,6,5,,7<4[8:1],,,,8,,1,,2,1,
{16}3-8[8:1]/8,,,7,3,,6,,4,5,3,5,2,4/1,,,
{16}2-4[8:1],,,5-2[8:1],6,,,1-5[8:1],8,,,6-1[8:1],7,,,8,
{16}7,,,2,5,4,3b<6[8:1]/7b,,,,3,,7,8,,,
{16}8/6<1[8:1],,,2,6,,3,,4-8[8:1]/3,,5,,6,6,,,
{16}7<4[8:1]/8,,,8,7,,1,,2,4,3,,8/3,,7,7,
{16}4,5,2,5,3,4,2,4,2,8,5,6,1,7,4,5,
{1}6<4[8:5]/2qq5[8:5],
{16}8b/1b,,,6,5,,5<8[8:1]/7,,4,,5,,{24}2,3,4,5,,,
{16}7/5,,,6,5>2[8:1],,7/4,,8<5[8:1],,1,,2,,3,,
{16}2b/4,,,3,4,,4>1[8:1]/2,,5,,4,,{24}7,6,5,4,,,
{16}2/5,,,3,4,,8/2,,7,3,6,4,8,1,5,3,
{16}7b/2bv5[8:1],,,8,2,,7,,6<1[8:1]/2,,7/3,,{24}2,3,4,5,,,
{16}7/3,,,3,4>1[8:1],,2/5,,7<4[8:1],,8,,1,,2,,
{16}2b/7bv4[8:1],,,1,7,,2,,3>8[8:1]/7,,2/6,,{24}7,6,5,4,,,
{16}6/2,,,4/3,,,8/2,,5,6,1,8,4,5,2qq5[8:5],7pp4[16:9],
{4},,,{24},,,6,5,4,
{1}6b<4[2:5]/3b>5[2:5],,,
