&title=僕らのFreedom DiVE↓
&artist=三年生チーム(イロドリミドリ)
&first=0.01
&lv_5=14
&des_5=FREE Gravity
&inote_5=
(204){4},,,,5,
{8}3/6,4,,6,{4}7/4,
{8}4,4,3/6,5,,3,{4}5/2,
5,{8}6/3,4,,6,{4}1/7,
{16}1,8,2,7,3,6,4,5,{4}4,{16}5,4,6,3,
{4}7-5[8:1],1-3[8:1],8-6[8:1],2-4[8:1],
7-5[8:1],1-3[8:1],8-4[8:1],2,
{12}1b,2,3,7,6,5,1,2,3,7,6,5,
2,3,4,8,7,6,2,3,4,8,7,6,
{4}1h[4:1],2h[4:1],3h[4:1],4h[4:1],
5h[4:1],6h[4:1],7h[4:1],8h[4:1],
{2}1s5[2:3],8,
7,6,
4/8z4[2:3],3,
2,{4}1,1,
{2}5/1-5[2:1],{4}6,7,
4/8-4[2:1],3,2,1,
4/2,6,6/8,2,
{8}5,6,7,8,1,2,3,4,
{4}3/5h[4:1],2-4-7[4:1],2/5,8-5[4:1],
{1}8/5p2[2:1],
{4}6/4h[4:1],7-5-2[4:1],7/4,1-4[4:1],
{1}1/4q7[2:1],
{4}5h[2:1],{8},,,,6/4,7,
{4}8-5[4:1],5-2[4:1],2-7[4:1],C,
{1}8h[1:2],
1h[1:1],
{2},C,
{4}C,E7,{2}E3,
{4}2-4[8:1],2/1,6-8[8:1],6/5,
1-5[8:1],1/5-7[8:1]*-3[8:1],,2x/8x,
5-1[8:1],5/6,4-8[8:1],4/3,
1/3,8/4,{2}7h[4:1]/5h[4:1],
{4}5-2[8:1],8/5,4-7[8:1],1/4,
2h[4:1],7h[4:1],{2}4h[4:1],
{4}4-1[8:1],4,5-8[8:1],5,
1-5[8:1],1/5V71[4:1]*V31[4:1],,,3-1[8:1],
3/4,7-5[8:1],7/8,
4-8[8:1],4/8-6[8:1]*-2[8:1],,5x/3x,
8-4[8:1],8/7,1-5[8:1],1/2,
4/2,5/1,{2}6h[4:1]/8h[4:1],
{4}8-3[8:1],5/8,1-6[8:1],4/1,
2h[4:1],7h[4:1],{2}5h[4:1],
{4}8/1-4[8:1],1/8,1/8-5[8:1],8/1,
{2}1h[4:1],{16}5,4,5,4,6,3,6,3,
,,,,{8}1,2,{4}3/8,{8}1,2,
3/8,7,6,1,2,3,7,6,
{4}5,{8}2,3,{4}4,{8}6,5,
4,5,3,6,{2}2h[4:1],
{4}1-4[8:1]/5-8[8:1],1/5,3-8[8:1]/7-4[8:1],7/3,
1>4[16:3]/5<8[16:3],5/1q6[4:1],1x,3,
2-5[8:1]/6-1[8:1],6/2,4-1[8:1]/8-5[8:1],4/8,
4<7[16:3]/8>3[16:3],8/4qq1[2:1],4x,7,
{2}8w4[8:1],{4}6<2[4:1],2q6[4:1],
6V82[4:1],2>5[4:1],5<8[4:1],8,
1-5[8:1],1/2,8-4[8:1],8/7,
{16}5,3,5,3,6,4,6,4,{8}7,5,3,1,
7,7<5[8:1],{16},,2,3,{4}4,{8}6,7/4,
6,5,6h[4:1],{16}4,3,{4}2,{8}5,5,
2,2>4[8:1],{16},,7,6,{4}5,{8}3,2/5,
3,4,3h[4:1],{16}5,6,{4}7,{8}4,4,
8-4[8:1],8,3,2,1-5[8:1],1,5,6,
7-4[8:1],7,4,3,2-5[8:1],2,6,7,
{4}8-4[8:1],8/2-5[8:1],2/6-1[8:1],6/4-8[8:1],
4/7-3[8:1],7/1w5[8:1],1,8-4-2[4:1]*-4-6[4:1],
{2}8b,{12}3,2,1,7,6,5,
3,2,1,8,7,6,3,2,1,8,7,6,
5/4,3,2,8,7,6,4,3,2,8,7,6,
4,3,2,1,8,7,{16}6/5,,,4/2,,,{8}1/8,
{16}7,8,{8}7,{16}2,1,{8}2,{16}7,8,{8}6,{16}2,1,{8}3,
{16}6,8,{8}5,{16}3,1,{8}4,6/3,6/3,{16}5,4,5,4,
{8}5,4x,{4}3h[4:1],{8},2,{4}1h[4:1],
{2}8qq3[4:3],1h[4:1],
{8},5x,{4}6h[4:1],{8},7,{4}8h[4:1],
{2}1pp6[4:3],8h[4:1],
{8}3-8[8:1],4,{4}3,{8}7,8,{4}7,
6h[2:1]/8pp4[16:9],{8},,,,7,6,
{4}3h[2:1]/5pp1[2:1],{8},,,,3,2h[2:1],
,,,,,,{4}1/8,
7/8-4[8:1],8,2/1-5[8:1],1,
7/6-1[8:1],6,2/3-8[8:1],3,
5q8[2:1]/4p1[2:1],5/4,,,1h[4:1],
3h[4:1],5h[4:1],7h[4:1],
1b,8,{8}2,2,{4}7,
3,6,{8}5h[8:1],4h[8:1],{16},,,,5b,
4,5,4,6,3,6,3,7,2,7,2,8,1,8,1,
7,2,7,2,6,3,6,3,{4}5h[4:1],4h[4:1],
{24}8bx,7x,6x,5x,4x,3x,2x,1x,8x,7x,6x,5x,4bx,3x,2x,1x,8x,7x,6x,5x,4x,3x,2x,1x,
8bx,7x,6x,5x,4x,3x,2x,1x,8x,7x,6x,5x,4bx,3x,2x,1x,8x,7x,6x,5x,4x,3x,2x,1x,
{4}8bx,1/7,1/6,1/5,
8/1,8/2,8/3,8/4,
{1}1w5b[4:1],
{4}4,4,{2}C,
4/5,C,
{4}5,5,{2}C,
3/5,3,
{4}4/B1,B2,{2}5/E3,
6/4,6,
{4}5/E7,B6,4/B5,6/3,
{2}4h[2:1],{4}6,3,
7/C,6,5,4,
2/C,3,6,4,
2/5h[2:1],2,{2}C,
{4}5/2,3,4,5,
7/4,6,5,4,
5/7,5,4/2,4,
1/3,3,8/6,6,
8h[2:1]/1h[2:1],{8},,,,2,1,
{4}8,7,1,2,
7h[2:1],,,3,
4h[2:1],{8}7,6,{2}5,
{4}8<5[16:3],8>3[16:3],4-7[8:1],4qq1[8:3],
8-5[8:1],8,2v4[8:1]/6v8[8:1],6/2,
1>4[16:3],1<6[16:3],5-2[8:1],5pp8[8:3],
1-4[8:1],1,7-2[8:1]/3-6[8:1],3/7,
{2}1w5[8:1],{4}3>7[4:1],7q4[4:1],
4V61[4:1],1>5[4:1],5<1[4:1],1,
{2}5w1[8:1],4w8[8:1],
{4}2-6[8:1],2/8-4[8:1],8/1-5[8:1],1/7,
6pp5[8:3],6/1>3[8:1],1qq2[8:3],4<6[8:1],
4pp1[8:3],4,3h[4:1],8,
3qq4[8:3],3/8<6[8:1],8pp7[8:3],5>3[8:1],
5qq7[8:3],5,{2}6w2[8:1],
{8}8-4[8:1],8,3,2,1-5[8:1],1,5,6,
7-4[8:1],7,4,3,2-5[8:1],2,6,7,
{4}8h[8:1]/2h[8:1],2h[8:1]/4h[8:1],4h[8:1]/6h[8:1],6h[8:1]/8h[8:1],
{8}6/1,{16}8,7,{8}1,8/3,{16}2,1,2,1,3,8,3,8,
4x,5,3,6,4,5,3,6,1x,8,2,7,1,8,2,7,
1x,2,3,4,8x,7,6,5,1x,2,3,4,5x,6,7,8,
6x,5,7,4,6,5,7,4,1x,2,8,3,1,2,8,3,
1x,8,7,6,2x,3,4,5,1x,8,7,6,{4}5x/1-5[8:1],
{2}1/5-7[8:1]*-3[8:1],6-1[8:1]/4-1[8:1],
{4}7h[8:1]/8h[8:1],1h[8:1]/6h[8:1],2h[8:1]/5h[8:1],3h[8:1]/4h[8:1],
4/3-7[4:1],3/7-5[4:1],5-1[4:1],1<5<1[4:3]*>5>1[4:3],
,,,,5/7h[4:1],
{8}4-6-1[4:1],6,{4}4/7,C,
3/2-7[4:1],7-4[4:1],4,C,
4/2h[4:1],{8}5-3-8[4:1],3,{4}5/2,C,
6/7-2[4:1],2-5[4:1],5,C,
8h[2:1]/1h[2:1],{8},,,,8/7-4[8:1],1,
{4}8-3[8:1],6-1[8:1],{2}5-2[8:1],
{8}8/7,7,1/2,2,6/5,6,3/4,3,
7/8,6/1,5/2,4/3,1/2,8/3,7/4,6/5,
{4}4-1[4:1],1-6[4:1],6-3[4:1],3>8[4:1],
8<5[4:1],5>2[4:1],2<7[4:1],7<3[4:1],
3V17[4:1],7V52[4:1],2,3,
{16}1,3,{8}8,{16}5,6,{8}4,5/4,6/3,7/2,8/1,
{24}8-5b[4:15]/1-4b[4:15],7b/2b,6b/3b,5b/4b,
E
