&title=Next Time
&artist=SaMZIng
&first=0.03
&des=Nächstes Mal
&lv_5=13
&inote_5=(175)
{1},
{8}3h[4:3],,
4,,
5,,
6h[4:3],,
{8},,
,,
B2,,
B4,,
{8}7h[4:3],,
4,,
3,,
2h[4:3],,
{8},,
,,
B7,,
B5,,
{8}1h[4:3],,
6,,
7,,
8h[4:3],,
{8},,
,,
E4,,
E6,,
{8}3h[4:3],,
4,,
5,,
6q8[4:2],,
{8},,
,,
1q5[4:1],,
7,,
{8}6h[4:3],,
5,,
4,,
3h[4:3],,
{8},,
,,
B7,,
B5,,
{8}2h[4:3],,
5,,
6,,
7h[4:3],,
{8},,
,,
B2,,
B4,,
{8}8h[4:3],,
3,,
2,,
1h[4:3],,
{8},,
,,
E6,,
2,3,
{8}6h[4:3],,
5,,
4p4qq4[1:1],,
,,
{8},,
,,
E8,,
E6,,
{8}46,,
4h[8:4]/6h[8:4],,
,,
,,
{8}3h[4:1]/6qq5[2:1],,
,,
2h[8:1],,
2,,
{8}64,,
6h[8:4]/4h[8:4],,
,,
,,
{8}3h[4:1]/6qq7[2:1],,
,,
2h[8:1],,
2,,
{8}64,,
4h[8:4]/6h[8:4],,
,,
,,
{8}3h[4:1]/6qq8[2:1],,
,,
2h[8:1],,
2,,
{8}4>1[4:1],,
1<5[4:1],,
5V31[16:4],,
{4},
{8}7-3[8:1],,
7/1-5[8:1],,
,6,
6b,,
{8}7,,
7/8>3[8:1],,
,7p3[8:1],
7,,
{8}2,,
2/1<6[8:1],,
,2p6[8:1],
2,,
{8}5,,
5/4>1[8:1],,
,5q1[8:1],
5,,
{8}2,,
2/8<5[8:1],,
4q8[8:1],3,
2b,,
{8}3-5[8:1],,
7-1[8:1],,
3-1[8:1],,
7-3[8:1],,
{8}71,,
24,35,
4-6[8:1]/6-1[8:1],,
46,,
{8}85,6,
41,3,
65,7,
34,2,
{16}6,3,6,,
4-1[8:1]/5-8[8:1],,36,,
{48}E6/E4,B3/B6,B7/B2,E8/E2,Cf,,,,,,,,
,,,,,,,,,,,,
{8}7<5[8:1],,
2<8[8:1],,
,4>1[8:1],
1<7[8:1],,
{8}4xp7[4:1],,
5,,
,5<7[8:1],
3,,
{8}3>1[8:1],,
6>4[8:1],,
,8<5[8:1],
5>3[8:1],,
{8}8x-5[8:1],,
1,,
34,45,
56,,
{8}7<5[8:1],,
2<8[8:1],,
,4>1[8:1],
1<7[8:1],,
{8}4xp7[4:1],,
5,,
,6,
45,3,
{8}3-8b[8:1],6>4>2<8[4:1],
3b,6x,
,,
7-4b[8:1],2<8<6>4[4:1],
{8}7b,2x,
,,
8h,8h,
1h/7h,1h/7h,
{8}2>4[8:1],,
7>1[8:1],,
,5-7>8[8:1],
8-2[8:1],,
{8}5x<2[4:1]*<2[4:1],,
4,,
,4>2[8:1],
6,,
{8}6<8[8:1],,
3<5[8:1],,
,1-3<4[8:1],
4-6[8:1],,
{8}1x-4[8:1],,
8,,
65,54,
43,,
{8}2>4[8:1],,
7>1[8:1],,
,5-7>8[8:1],
8-2[8:1],,
{8}5x<2[4:1]*<2[4:1],,
4,,
,4,
65,7,
{8}7-1>2b[8:1],3<6-8>1[4:1],
7b,3x,
,,
2-4<5b[8:1],6<1-3<4[4:1],
{8}2b,6x,
,,
1h,1h,
8h/2h,8h/2h,
{8}7qq8[16:6],7,
1>4[8:1],,
1,,
7qq1[16:6],7,
{8}2>4[8:1],,
,,
3<5>3[4:1],,
6,,
{8}7qq8[16:6],7,
2,,
1-5[8:1],1,
7,7,
{8}6<1[8:1]/4>1[8:1],,
64,,
28,73,
46,,
{8}2pp1[16:6],2,
8<5[8:1],,
8,,
2pp8[16:6],2,
{8}7<5[8:1],,
,,
6>4<6[4:1],,
3,,
{8}3qq4[16:6],3,
6,,
5-1[8:1],5,
3,3,
{8}2>5[8:1]/8<5[8:1],,
28,,
34,45,
5b/6b,,
{8}7-3[8:1],7,
2-5[8:1],,
7-3[8:1],7,
2-8[8:1],,
{8}2-4[8:1]/4-6[8:1],,
2/4-1[8:1],,
6,7,
8x/2x,,
{8}8-4[8:1],8,
3-6[8:1],,
8-4[8:1],8,
3-1[8:1],,
{8}3-5[8:1]/5-7[8:1],,
3V17[4:1]/5,,
7-3[8:1],6,
5b,,
{8}2-6[8:1],2,
7-4[8:1],,
2-6[8:1],2,
7-1[8:1],,
{8}7-5[8:1]/5-3[8:1],,
7/5-8[8:1],,
3,2,
1x/7x,,
{16}17,,26,,
3,5,3-6[8:1],,
6x-3[8:1],,,,
7,,7,,
{16}2,4,3x,,
7,5,6x,,
27,,36,,
4bV62[1:2]/5bV37[1:2],,,,
{16}A5/E5/A4/D5,
E
