&title=散り散り
&artist=読谷あかね; 重音テト
&first=0.02
&des=Ylng
&lv_5=14
&inote_5=(184){1},
{16}4,,4,,5,,4x,6,4,5,3,,5x,3,5,4,
{8}6-8[8:1],,4,,3-5[8:1],,8,,7-5[8:1],,3,,4-2[8:1],,6,,7V13[6:1],,4,,5-7[8:1]*-3[8:1],,,,2V86[6:1],,5,,4-2[8:1]*-6[8:1],,,,3-5[8:1],,6,7-3[8:1],4,,
{16}2,,2x,1x,
{8}8x-2[8:1],,5,4-6[8:1],,4>1[8:1],3,,7-4[8:1],,2,3-7[8:1],,4,5-1[8:1],,
{16}2h[16:3],,,8h[16:3],,,6,,5-3[8:1],,2-5[8:1],,,,,,
{8}6-8[8:1],,1,,2-6[8:1],,6,,7-1[8:1],,1,,2-5[8:1],,6,,7-3[8:1],,2,,1-5[8:1],,6,,8-3[8:1],,4,,5-1[8:1],,7,,6-4[8:1],,3,2-6[8:1],5,,
{16}7,,7x,8x,
{8}1x-7[8:1],,4,5-3[8:1],,5<8[8:1],6,,2-5[8:1],,7,6-2[8:1],,5,4-8[8:1],,4<3[2:1],5,,,
{4}E1,,
{8}1-3[8:1],,1,5-7[8:1],,5/2,1-5[8:1],,7-1[8:1],,3,3-7[8:1],,6,6-4[8:1],,1/6-8[8:1],,6-4[8:1]/3-1[8:1],4,3/6-8[8:1],,2-5[8:1],,2-8[8:1]/1,,7-3[8:1]/2-5[8:1],6,7<4[8:1]/2,,2-6[8:1],,8-2[8:1],,,3-7[8:1],,,5V71[6:1],,,3v5[8:1]*-1[8:1],,3V57[6:1],,8-5[8:1],,8-3[8:1],3V51[4:1]*-6-8[4:1],,,,,E3,E7,,
{8}2-8[8:1],,2-4[8:1]/6-2[8:1],5,2/6-4-1[6:1],,
{8}1,,8-6[8:1],,8,4-2[8:1],,4/7,8-4[8:1],,2-8[8:1],,6,6-2[8:1],,3,3-5[8:1],,7-4[8:1],,7,3v5[6:1]*V17[4:1],,,,,6-3[8:1]/4,,6,2-6[8:1],,8,8-4[8:1],,3-1[8:1],,3-5[8:1],5-2[8:1],,,7,7-3[8:1],,1-6[8:1],,1>4[8:1]/4,,1/5,6-2[6:1],7pp4[8:5],,,,E5,,,,,
{16}4,,4,,5,,4x,6,4,5,3,,5x,3,5,4,
{16}6x,5,6,4,7,,8/3,,2x,4,3,4,2,,1/5,,6x,5,7,6,8,,7/5,,4x,5,3,4,2,,3/5,,4qq3[4:1],,,,,,7qq6[4:1],,,,,,1,,1>4[8:1],,,,1-5[8:1]/6,,,,1>4[8:1]/3,,,,1/6,,7,,8,,
{16}5x,7,5,6,4x,,3x/5x,,4x,2,4,3,5x,,6x/4x,,3x,2x,1x,,4x,2,4x,3,5x,4x,6x,4,5x,3,4,,2-4[8:1],,5,5,2,,6,,5-1[8:1],,7,7,5,,6,,2-4[8:1],,4V62[4:1]*-7-1[4:1],,,,,,,,,,E3,,E7,,
{16}3,4,2,5,4x,6,4,7,5,7,4x,6,3,6,2,5,3x,4,2,5,4x,6,5,7,2x,4,3x,4,1,5,2,6,3,4,2,,6,5,7,,E1,,E7/E3,,E5,,C,,4x,3,2,1,4,,4,,6x,7,8,1,3,,4,,
{16}6x,5,7,5,7,4,5,3,4x,3,5x,2,4,3,4x,2,5x,4,6,3,4x,1,6,2,7,3,8x,2,1,3,8,4,7<5[8:1],,5,5,7,,3,,4q8[8:1],,2,2,4,,3,,7-4[8:1],,4x-1[8:1],4x-8[8:1],7,,,,,,E1,,C,,E5,,
{8}2/4,,7/5,,3,2/4,1,,6/5,,3/4,,6/5,7,6/8,,1/3,,7/6,,3,4/2,5,6,
{6}7h[96:1]/5,2h[64:1]/8h[96:1],3h[48:1]/5h[64:1],6h[32:1]/8h[48:1],1h[24:1]/3h[32:1],4h[16:1]/6h[24:1],8b,,,
{8},E1,E7/E3,E5,
{8}3bx>8[8:1]/7bx<4[8:1],,3-7[8:1]/7,,1,1V35[6:1],,1-7[8:1],,1b,5b,3b,,1>4[8:1]/4,8,5,6-4[12:1],7,1V35[6:1],,7-3[8:1],8,2,1bV35[6:1],,5b,7b,1b,,8-4[8:1]/5,4-7[8:1],8,2>5[8:1],,2,
{16}6b,7b,8b/2>5[8:1],,,,2x,,6,7,8/2-6[8:1],,6V41[6:1],,2/7-3[8:1],,7-1[12:1],,,,,,4,,2-5[32:3]*-6[8:1],,,,2,,,,7/5,,8,,2/1,,3,,2>5[8:1]/4,,,,6,,7,,8,,E1,,C,,E7/E3,,E5,,
{8}2bx-5[8:1]/6bx-1[8:1],,2/6V42[6:1],,8,8-5[8:1],,8V24[6:1],,4b,6b,8b<5[32:3],,3-8[8:1]/8,4,6/3,5-7[8:1],4,8bV24[6:1],,4b,6b,8b-3[8:1],5,8<5[8:1],4,8,3-5[8:1],,7-3[8:1],8,3,
{16}2>5[8:1],,,,2,,6b,,8b/2>5[8:1],,,,2,,6,,
{16}8/2-6[8:1],,6V41[6:1],,2/7-3[8:1],,7-1[12:1],,,,,,4,,2-5[8:1]*-6[8:1],,,,2,,,,7<4[8:1],,3,,2,,1,,8v3[8:1],,,,7/8,,6,,5,,E1,,C,,E7/E3,,E5,,
{16}4bx/5bx,,3,4,3,5,3,,6,5,7,,3,4,1,,6/8,,6/8,,1,5,2,7,3,8,4,1,5,,3/7,,4/5,,6,5,6,4,6,,3,4,2,,7,1,8,,2/6,,3,5,4,7,5,6,4,5,3,5,2-5[8:1]/4-8[8:1],,,,2V86[4:1],,,,4,,4-2[8:1]*-6[8:1],,,,4,,,,,,7V13[4:1],,,,5,,5-7[8:1]*-3[8:1],,,,5,,,,,,1/8,,2/7,,3/6,,,,1>4[8:1],,4>1[8:1]b,,1,,6,,7,,8,7,8,,1,2,1,,2,7,3,6,4,5,Cf,,,,
