&title=魔女達の舞踏会 (Full Ver.)
&artist=君の美術館 (lily-an,fi-fy,紫)
&first=0
&des=The Weird Sisters
&wholebpm=138
&lv_5=13
&inote_5=(138)
{1},,
{8}2,5,4,7,2,3,4,5,
{8}3,6,4,5,4,{16}7,,5,4,3,2,
{8}1h[8:8],6,5,4,5,6,7,8,
{8}7,2h[8:1],5h[8:1],4h[8:1],7h[8:1],3h[8:1],5h[8:1],4h[8:1],
{8}6-4[12:1],,3,,2-8[12:1],,7,6,
{8}5-7[12:1],,2,,1>4[8:1],,6,7,
{8}8-6[12:1],,2-4[12:1],,1-5[8:1],,3,3,
{8}2hx[8:1],4h[8:1],3hx[8:1],2h[8:1],3hx[8:1],4h[8:1],2x,,
{8}3-5[12:1],,6,,7-1[12:1],,2,3,
{8}4-2[12:1],,7,,8<5[8:1],,3,2,
{8}1-3[12:1],,1-7[12:1],,1-5[8:1],,6,6,
{8}7h[8:1],3h[8:1],4h[8:1],1h[8:1],5h[8:1],4h[8:1],7h[8:1],3,
{8}2q3[8:4]*q3[8:4]/6,,,,,,,,
{8}7p5b[8:4],,,,,,,,
{8}4q5[8:4],,,,,,,,
{16}3/5,,46,,
7,5,,3x,
4x-1[8:1]/5x-8[8:1],,,,
{48}4bx/5bx,E5,Cf,E1,,,{16},,
{8}7<4[8:1],2,7,,1/4,2,3/5,4,
{8}3/7,6,{16}1/5,2,3,4,
{8}5-1[8:1]*-2[8:1]/7,6,5,,
{8}8-4[8:1],3,8>3[8:1],,5-2[8:1]/8,6,5/7-4[8:1],8,
{16}1xqq6[8:3],,,2x,,,3x,,4x>1[8:1]*p8[8:1],4x,,,
4b,,,,
{8}7v2[8:1],3,7,,1/8,7,4/6,3,
{8}2/5,3,{16}8/4,7,6,5,
{8}4-1[8:1]*-7[8:1]/2,3,4,,
{8}2pp4[8:1],7,2<7[8:1],,2/6>3[8:1],5,8/6,1,
{16}1x/2x,,,4/5,,,2/7,,
1b>4[8:1]/8b<5[8:1],,,1bx/8bx,,,,,
{16}A6,B6,C,B2,A2,,,,
A3,B3,C,B7,A7,,,,
{16}E6,B6,B7,E8,E2,B2,B3,E4,
E1,B8,B7,E7,E5,B4,B3,E3,
{16}A1,B1,C,B5,A5,,,,
A4,B4,C,B8,A8,,,,
{8}B6/B7/E7,,B2/B3/E3,,B1/B8/Ch[8:2],,,,
{8}7-5[12:1]/2,3,4/7,3,{16}2/4h[8:1],,1,5,2,,3/6h[8:1],,
{16}4,,8/3,,7/2,,1/6,,
5h[8:1]/8x,1x,2x,7/3x,4x,5x,8h[8:1]/6x,,
{16}1,,7/2,,3/6,,2/7,,
3/6h[8:1],,5,7,1,,2/8,,
{16}3,5,1,7,4q7[8:3],8,2,6,
,,,,,,,,
{8}8<2[8:4],,,2,2<4[8:4],,,4,
{8}4>6[8:4],,,6,6>8[8:4],,,8,
{8}8<2[8:4]`8!p2[8:4],,,,,,,,
{16}1h[8:2],,8,,6h[8:2],,5,,3,3,4,,2h[8:1],,8,8,
{8}1V38[16:5],,,6,6V85[16:4],,,3,
{16}3xV52[16:5],3x,4x,,6,,7x,7x,,,6,,,,1s5<8[16:11]/5,,
{8}1z5>2[16:8]/5,,,,,,,,
{8}1h[8:1]/4h[8:1],,3qq8[8:3]*qq8[8:3]/8h[8:1],,7-4[8:1],,,,
{16}1>4[8:1]*>4[8:1]/5,,,,6,,6,,
6<1[8:1],,,,4,,3,,
{16}2>6[8:2]*>6[8:2],,,,6V42[8:2],,,,
7,,8,,1-6-8-5p2<5[8:8]*-6-8-5p2<5[8:8],,,,
{16}4h[8:8],,,,,,,,
,,,,,,,,
{16},,2,,4,,3,,
7,,6/2,,1/5,,4/8-3[8:1]*-3[8:1],,
{16}4-7[8:1]/8,,,,,,4xv1[8:1]*v1[8:1],,
8xv5[8:1],,,,,,8x>3[8:1]*>3[8:1],,
{16}4x<7[8:1],,,,,,,,
4h[16:3],,,8h[16:3],,,2h[8:1],,
{16}5v2[8:1]*v8[8:1],,,,5,,,,
4b/7b,,,2b/5b,,,3b/6b,,
{16}1b/8b,,1hx[128:1],8x,1bhx[128:1],8bx,1bh[128:1],8b,1bw5b[8:1],,,1bx,,,,,
{8}7^4[8:1],3,7,2,1-5[8:1]/5,3,1/8-3[8:1],7,
{16}8/5,,4h[4:1],,2,1,8,7,6-2[8:1]/3-7[8:1],,4/5,,3/6`C,,,,
{8}1v4[8:1]*v6[8:1],2h[16:1]/8h[16:1],1`Cf,,E8`B7,B3`E4,B5`E6,E2`B1,
{16}8x-3v6b[4:1],,,1x,,,2x,,4xw8b[8:1],,5x/3x,,4x`Cf,,,,
{8}2-6[8:1],5/3,2,7,8-4[8:1]/4,6,8/1-6[8:1],2,
{16}1/4,,5h[4:1],,7,8,1,2,3v8[8:1]/7v4[8:1],,8/4,,7/3`C,,,,
{8}2/5-1[8:1],6,7-4[8:1]/5,,7/3-8[8:1],2,5/3,6,
{16}7x-3[16:1],,,1x/7x,,,2x,,1x-6b[16:1]/4x-7b[16:1],,,1bx/4bx,B6/B7f/C/E7/B5/B8,,,,
{16}7qq8[2:1],,,,,,,,8qq1b[2:1],,,,,,,,1qq2[2:1],,,,,,,,2qq3b[2:1],,,,,,,,
{16}3<3[16:9],,,,,,,,2>2b[16:9],,,,,,,,{16}1>1[16:9],,,,,,,,8>8b[16:9],,,,,,,,
{16}1,,,1,,,2h[8:3],,,,,,8v1-3[4:1],,,,7-5v4b[4:1],,,7,,,2,,2q5<4[16:16],,,,,,,,
{16}8,,,8<4b[16:5],,,B8f,,,,,,,,,,{4}Ch[4:3]/B2/B3/E3`B7`B6`E7,,,,
{4}7v1[1:3]*v6[1:3],,,,
{4},,,,
{4},,,,
{4},,,{8}3,4,
{8}2h[2:1],,,,6h[4:1],,4h[4:1],,
{8}7p4[2:1],,,2,,,1,,
{8}2qq5[8:8]/7pp4[8:8],,,,,,,,
{8},,,,,,6pp4[4:1]*pp4[4:1],4,
{8}6,,3xqq5b[4:1],5x,3x,,7p3v8[4:1]*p3v8[4:1],4,
{8}7,,2xq6v1b[4:1],5x,2x,,,,
{8}7pp6[8:3]/3bxpp2b[4:3],,,,,,,,
{16}1x,,,2x/8x,,,4x/7x,,
{16}5x-1[8:1]/6x-1[8:1],,,,5x/6x,,,,
{8}7p6[2:1]*p6[2:1]/2h[4:1],,,3h[4:1],,,4,,
{8}2q3b[2:1]/5h[4:1],,,6h[4:1],,,7,,
{8}Ch[8:3]/B2/B3/E3,,,4,4,47,6pp4[16:4]/3-5b[32:3],52,
{16}3b,,,,1,,1,8,
2,4,3,8,3-8[8:1],,,,
3/8,,7,,6x-1[8:1]/1,,5,,1,,2,,7/3x-8[32:4],,4,,
8,,6,,6x-1b[8:1],1,6>3[8:1],2,6qq3[32:12],,,,,,,,
1,,2,,7/3xqq4[32:9],,4,,8,,7,,6x>3[32:4]*pp4[32:9],,5,,
,,,,2x,,3,,7/4,6h[16:3]/5,,,1x>4[8:1],,4,4,
1,,6,,7x<4[8:1]/4x,,8,,4,,3,,5/2xq6[32:4],,1,,
6,,8,,8x<5[8:1],5,8p4[8:1],4,8p2[32:5],,,,,,,,
1,,27,,3/6x-1[8:1],,45,,3>8[8:1]*p7[8:1],3,,,3,,,,
6h[16:3]/1b,,,5h[16:3],,,4,,2b/7,1,8,2/7b,,,5,4,6,,
B4,B3,E3,,B5,B6,E7,,B4,B3,E3,,
A8,B8,4,,A7,B7,3,,A6,B6,2,,A5,B5,1h[8:2],,
,,5h[16:3],,A2/B2,,6h[16:3],,A3/B3,,7h[16:3],,A4/B4,,8h[8:1],,
3,4,3x,,3,4,3x,,3,4,2x,,2,4,3x,,
6,5,6b,,6,5,6b,,6,5,7b,,7,5,6b,,
3,4,2x,,2,4,3x,,3,4,2x,,2,4,3x,,
6,5,7b,,7,5,6b,,6,3,8b,,8,3,6bh[8:2],,,,5,7,2,4,3h[8:1],,
4,2,7,5,6,,1/8>2p6[16:4],,27,,
3,,4,,5h[8:2],,,,1h[8:1],,2h[8:1],,4x<6p2[16:4]*<6p2[16:4],,3,,
6,,7,,8hx[8:1],,3,3,8,,7,7,1xqq3[16:5]*qq3[16:5],,4,,
1,,5,,4hx[8:2],,,,8h[8:1],,7h[8:1],,5x>2[16:2],,6,,5,,
7,7,1x,,2,2,4,1xw5[12:1],,,1x,,,,
3/7-4[8:1]*-4[8:1],,65,,1x,,,,2-5[8:1]*-5[8:1],,34,,8x<6[32:3],,,,8p4[8:1],,2,,
1xq5[8:1],,,,1>3[32:3],,6,6,1x,,7,,1,6,5,6,3h[8:1],,8,3,4,3,6,,7/5,,5/3,,
2,8,1,7,5,6,4,5,2b,8h[1024:1],4b,6h[1024:1],1b-5b[8:1],7h[1024:1],3b,5h[1024:1],1-4-7-2-5b[8:3],,,,7b,,,,,,
6V47b[16:3],,7/5x,,
2,,,,3-5b[32:3],,2/4x,,6,,7-3b[8:1],7,4,,1xh[8:2],,,,8-6b[32:3],,1-5b[16:2],,2x-4b[32:3],,,,
,,7,,6hx[8:3]/1x,,5,,,,3h[8:2],,8x,,4,,5p4b[8:2],4,6,,2x<7>2b[8:2],,,,2,,,,6xh[8:2],,,,
4<7b[8:1],,5/3q8b[8:1],,4x/2,,3,,,,6-4b[32:3],,7/5x,,3,,2-6b[8:1],2,5,,8hx[8:2],,,,1,,2-5b[16:2]/7-4b[16:2],,3x/6x,,2/7pp2b[8:3],,,,3,,4x,,5h[8:2],,,,1,,8x/4,,73,,2s6[8:2],6,1,,
2/Cf,,,,
8,,7,,1/6h[8:2],,,,3<6[8:1]*<6[8:1],,6<1b[8:1]`6?q2[8:1],,3,,,,,,3,,4/8v5[8:1],,4/8v3[8:1]*v3[8:1],,
8-4b[8:1],,,,C,,,,2>5[8:1]*>5[8:1],,3,,8<5[8:1]/2,,,,3>8[16:2]*>8[8:1]/8,,2,,3/6>3b[32:4],,6,,
,,1,,2>4[8:1]*>4[8:1]/5,,6<8[8:1],,2q6b[16:2],,6,,2,,7,,8v3b[8:1],,3>8[32:4]*>8[32:4],,8<5[8:1],,,,
4q8b[8:1],,3V52[32:6]*V52[32:6],,4,,3,,,,7,,6-1[8:1],,4-1[8:1]*-1[8:1],,5-1b[8:1],,,,,,,,6h[8:6]/3,,,,2,,,,1b,,,,2-7[8:2],,,,3-6[8:2],,,,,,,,1h[64:31],,,4h[64:19],,,,,{64}5x/8x,7x/6x,,,,,,,,,,,1x/4x,5x/8x,6x/7x,,,,,,,,,,2x/3x,1x/4x,5xV36[16:3]/8xV27[16:3],7x/6x,,,,,,,,,
{16},,,,,,,8>2v5[8:2],,2,,38,,,,3<6[8:1],,2,,7<4[8:1],,8,,
2,,2,,3,5,4,6,5-2[8:1]*-8b[8:1],,8/2pp5[16:6],,5,,,,
7,,8,,1-6-8-5p2<5[8:7],,,,5,,4,,3,,,,1h[16:6],,,,,,,,2xq8[32:5]/8x,7x/3x<7[16:2],,,,,,,
1xqq2[16:4],,2,,1/3,,,,4-8[8:1]*qq5[16:4],,3,,4,,,,7,,17,,6,4,5,3,4q8[8:1]*-1[8:1],,2/7,,4,,,,7-3[8:1],,1-5[8:1],,8,,,,8-4[8:1],,2-6[8:1],,1,,,,
7x,7,,2x,2,,45,,1b-4[32:3]/8b-5[32:3],1b/8b,,1b/8b,,,,,
3q5[8:2],,24,,8,,,,6p4[8:2],,75,,1,,2,,3,,18,,
7pp4[16:5]*pp4[16:5],4,5,2qq5[32:12]*qq5[32:12],7,,,,Cf,,,,
6,,7,,8/3<8[16:4],,,,E4,,E6,,E8,,E2,,
4-1b[8:1]/5-8b[8:1],,,,{48}4-7b[8:1]/5-2b[8:1],E4/E6,B3/B6,B2/B7,E2/E8,,,,,,,,{16},,,,18,,2,,
63,,7,,5/8-5[8:1],,,,3,,2,,1-4[8:1]*q6[16:3]/4,,8,,1,,,,2,5,4,7,1-5[32:4],1,,,12,,,,
3<6[8:1]/6>3[8:1],,27,,36,,,,8v3[8:1],,8,,3>3[16:5],,,,E5/B5/B4,,,C,,,1h[8:1],,5b,3,7-3[8:1],1b,,,,,{48}4bqq5<4b[16:10],,,{16},,,,,,,{48}8bp4b[16:2],,,{16},,,,,,,35,35,,46,4w8[8:1]b/6,,31,,{48}B4/A4,E4/E5,B3/B5,B2/C/E7,E2/B8/B6,A1/D1/A8/D8/A7,,,,{16},,,,,{48}1bx>8b[8:23]/8bx<1[8:23],E1,B7`B2`C,B6`B3,B5`B4,
