&title=the world of scarlet
&artist=OfficialAz3
&first=0.05
&des=Ref:Maple
&des_5=Ref:Maple
&lv_5=14+
&inote_5=(105){4},{16},,,,,,,,,,,,4h/5h,
4h/5h,4h/5h,4h/5h,4h/5h,4h/5h,4h/5h,4h/5h,4h/5h,4h/5h,4h/5h,4h/5h,4h/5h,4h/5h,6,3,
8-4-2[8:1],4,{8}2-5[16:1],{48},,,,,,,,,,,,A6,E7,,,,,{16}8x,2,4h[16:1],5h[16:1],{8}7x,
{16}1<8>1<8>1<5[8:1],7,{8}5-7[16:1],{24}1xh[48:1],2xh[48:1],3xh[48:1],4x,{48},{16}4,{8}4-2-5-7[16:3],{16}6,5,{4}4x/3xh[8:1],
{16}8x-4-2[8:1],4,{8}2-5[16:1],{48},,,,,,,,,,,,A6,E7,,,,,{16}8x,2,4h[16:1],5h[16:1],{8}7x,
{16}1<8>1<8>1<5[8:1],7,{8}5-7[16:1],{24}1xh[48:1],2xh[48:1],3xh[48:1],4x,{48},{16}4,{24}4,5h[48:1],6h[48:1],5h[48:1],6h[48:1],5h[48:1],{16}8,1,2,3,
(210){8}4v7[8:1],4,{4}E3/B3,{8}8x,6x,7h[16:1]/8h[16:1],7h[16:1]/8h[16:1],
{4}6>3[4:1],{8}2,1,8-5[8:1],1,2-7[8:1],3,
4-1[8:1],5x,{4}E7/B6,{8}8,{24}8,7,1,{4}8>6[2:1],
,6<2[4:1],2-8-6[4:1],{8}4,5,
5-8[8:1],5,C/4-7[8:1]/5x-2[8:1],4x,{4}4x,1,
{8}7-4[8:1],8,7,1,2-5[8:1],1,2/6h[16:1],6h[16:1],
6x-3[8:1]/2x-7[8:1],3x/7x,{4}C,{8}4x/5x,5/4,8/1,8/1,
7-4[8:1],5,{4}7,{16}2,4,2,4,1,3,1,3,
{4}8x-3[8:1]/4x-7[8:1],8x/4x,{8}1b/2b,{16}3,4,{8}2,2b/1b,
{16}7,5,{8}6,8b/7b,5,{16}3b,4,3,4,2b,5,1,6,
{4}7/8-5b[8:1],8/6-3[8:1],{8}6/1-4b[8:1],1,{4}1qq6[8:3],
{8}1,4,{4}5-3-1-7[8:3],{8}5/8,8,5,5,
{4}E7/D6/D7/D8/A7/A6,E3/D4/D3/D2/A2/A3,{16}8b,7,1,6,2,5,3b,4,
2,5,8,7,2b,5,8,7,1b,8,2b,7,3b,6,4b,5,
{8}3x/4x,3,3,3x/1x,{12}1,8,{48}7,,,,,,,6x/7x,,,,,,,{24}5,
{48},,,,,4,,,,,,,{4}3x-6[8:1],3x/1x,{24}1x,2x,3x,4x,5x,6x,
{4}7x/1x,{8}2/4,3,8b/7b,{16}6,5,{8}7,7b/8b,
{16}2,4,{8}3,1b/2b,4,{16}6b,5,6,5,7b,4,8,3,
{8}2bV46[8:1],1,8,7,8-4b[8:1],7-3b[8:1],8x>6b[4:1],7x,
{4}8x,7,{8}1,3,5,7,
{4}E3/D4/D3/D2/A2/A3,E7/D6/D7/D8/A7/A6,{16}1b,2,8,3,7,4,6b,5,
7,4,1,2,7b,4,1,2,8b,1,7b,2,6b,3,5b,4,
{8}6x/5x,6,6,6,6/4,6,6,6,
6,6/5,5/6-3[8:1],6,{2}6x/8xs4[4:1],
{1}Cf,
,,,{8}3,
2,{4}1V75-3[8:3],{8},,,,6<1[8:1],
5,4,3,{4}2-4[8:1],{16}2qq7-5-7pp2-4[1:2],,,7x,
{1}2x,
{4},,,,5,
8-5[8:1],,,,3-6[8:1],
{2}6/3x,
{4}4,1-4[8:1],,,,6-3[8:1],
3/6x,4-1[8:1],
4xp6>1[8:5],,,8-5[8:1],
{2}8xp2<5[2:1],{4}5>2[4:1],2x>8-6-4-2[8:11],
{1}Ch[2:3],
{8},,,,,1,8/1,8/1,
{48}7/1x,2,{24}3,,{8}6,5,{48}1x/7,2,{12}3,{8}6,5,{48}1x/8,2,{24}3,,4,8,4,
{16}8,4x,8x,2,{48}2/8x,7,{24}6,,{8}3,{4}5V31[8:1],{8}7,7,
{48}6x/8,5,{24}4,,,,,{8}1,{48}8/3x,4,{12}5,{24},,,{8}1,{48}2/6x,5,{24}4,{48},,,,,,,,1b/7b,
2b/6b,3b/5b,4b,,,,,,,,,{4}8-5[8:1],8-3[8:1],8,
{48}2/8b,7,{24}6,,{8}3,4x>1[8:1],{48}8b/3x,7,{12}6,{4}4x,{48}7b,6,{24}5,,{8}1,
2x>5[8:1],{48}7b/1x,6,{12}5,2x,{24},,,,{8}6-8[8:1],5-1[8:1],6x,5x,
{48}2bx,3x,{24}4x,,,,,{8}8,{48}2b/7,3,{12}4,{8}6,5/1,{4}7-5[8:1]/3-5[8:1],
7x/3x,{8}1b-3b[8:1],1b-7b[8:1],1bx-4b[8:1],1bx-6b[8:1],1bx,1bx,
5,5,5,5,{16}1b,2,8,3,7b,4,7,5,
6b,4,5,3,4,2,3b,1,4b,2,5b,3,6b,4,{24}5x,6x,7x,
{8}8x-5[8:1],5-7-3[4:1],{4}8,{8}4x-8[8:1],5-7[8:1],4x,5,
1x-5[8:1],5x,1,7-3[8:1],3x,7/4,5,5,
{4}E3/D4/D3/D2/A2/A3,E7/D6/D7/D8/A7/A6,{16}8b,7,1b,6,2b,5,2,4,
3b,5,4,6,5,7,6b,8,5b,7,4b,6,3b,5,{24}4x,3x,2x,
{8}1x/6,1,1,1,1/8,1,1,1,
1,1/6,6/1-3[8:1],8-4[8:1],1x-5[8:1],8x-6[8:1],1x,8x,
{16}4x,3,2,1,8x/B1/B2,7,6,5,4,3,2,1,8,7,6,5,
4x/B7/B8,3,2,1,8x/B4/B3,7,6,5,4x/B8,3,2x/C,1,8x/B4,7,6,5,
{8}4/7,{16}6,6,{8}5,5/2,{16}3,4,{8}3,{16}6,5,6,5,
{8}7>2[8:1],6,5,4<7[8:1],3,2,1,{16}1,1,
5x,4,3,2,1x/B2/B3,8,7,6,5,4,3,2,1,8,7,6,
5x/B8/B1,4,3,2,1x/B5/B4,8,7,6,5x/B1,4,3x/C,2,1x/B5,8,7,6,
{8}5/8b-4[8:1],8,8/6-2[8:1],6,{4}6b>3[8:1]*<1[8:1],6b,
{8}2b-6[8:1],4,2/5b-1[8:1],5,{4}5/8bw4[8:1],8x,
{16}8x,7,6,5,4x/B5/B6,3,2,1,8,7,6,5,4,3,2,1,
8x/B3/B4,7,6,5,4x/B8/B7,3,2,1,8x/B4,7,6x/C,5,4x/B8,3,2,1,
{8}8/3,{16}2,2,{8}1,1/6,{16}7,8,{8}8,{16}2,1,2,1,
{8}3<6[8:1],2,1,8>3[8:1],7,6,5,{16}5,5,
1x,8,7,6,5x/B6/B7,4,3,2,1,8,7,6,5,4,3,2,
1x/B4/B5,8,7,6,5x/B1/B8,4,3,2,1x/B5,8,7x/C,6,5x/B1,4,3,2,
{8}1x/5,1,1,1,5/7,5,5,5,
5,4/5,5s1z5[16:7]/4z8s4[16:7],5/4,{2}5b/4b,
{1}Cf,
,,,1qq3[4:3],
{2}7<4[4:1],2>5[4:1],
1-5[2:3],{8}4,6,6,4,
,,{4}1,2,3,
4/5,6-3[2:1],{2}6h[4:3],
{4},3-6[8:1],{2}3/6,
{4}7/8,2/1q6[2:1],{2}1h[4:3],
{4},6>3[16:3],6<1[16:3],6-2[2:1],
6h[4:3],,,3-7[2:1],
3h[2:1],{16},,,,,,,,6,,,5,
{1}5-1[16:29]*>4<6>4<6>5<6>4<5>4<5<6>5>4<5>4<6>4<5-1[16:29],
,C,
E
