&title=月影小町
&artist=駄々子
&first=0
&des=Lollisaki
&des_5=Lollisaki
&lv_5=13
&inote_5=(182){4},,,,{1}1x>6[4:3],
B7/B6,
8x<3[4:3],
B2/B3,
4x-1[2:1],
5x-8[2:1],
{4}4x>5[2:3],,,E7,
E6,E5,E4,E3,
1-3[8:1],5/1-5[8:1],6/1,7,
8-6[8:1],4/8-4[8:1],8/3,2,
1>4[8:1],1/6,8<5[8:1],8/3,
2-4-1-5[2:1],,,6,
7-5[8:1],5/7V15[4:1],4/7,3,
2-4[8:1],4/2V84[4:1],5/2,6,
{1}7qq1>7[4:5],
Cfh[1:1],
{4}8bx-6[8:1],8x/2x,1/5-1[8:1],{8}3x/5x,3,
3-1[8:1],4,5x/3x,{16}7,6,{4}5/8-4[8:1],8x,
{8}7-5[8:1],5-1[8:1],{4}7x,{8}2>5[8:1],2,{16}2x/6x,7x,8x,1x,
6x,7x,8x,1x,5x,6x,7x,8x,4x,5x,6x,7x,{8}8xh[8:1],6,
{4}1-3[8:1],7x/1x,8/4-8[8:1],{8}6x/4x,6,
6-8[8:1],5,6x/4x,{16}2,3,{4}4/1-5[8:1],1x,
{8}2V48[4:1],4,{4}2x,{8}7V15[4:1],1,{4}7x,
3h[4:1],{8}6,6,{16}2,3,4,5,8,7,6,5,
{1}4bx<1[4:3],
{2}B2/B3,C,
{1}5x>8[4:3],
{2}B7/B6,C,
{4}6xh[2:1]/2xV41-5[2:1],,,E7,
3xh[2:1]/7xV58-4[2:1],,,E3,
{2}B6/B5/2x>4[8:1],B3/B4/7x<5[8:1],
{16}1x>6[2:1],B1,C,B5,,,,,,,,,,,,,{4}7xh[4:1],
{8}4,4,B6,4,{4}4,
2xh[4:1],{8}5,5,B3,5,{4}5,
8xh[4:1],{8}3,3,B6,3,{4}3,
1xh[4:1],{8}6,6,B3,6,{4}6,
1-3[8:1],5/1-5-3[4:1],6/1,7,
8-6[8:1],4/8-4-6[4:1],3/8,2,
1>5[8:3],5,6,7,
8<4[8:3],4,3,2,
{8}1-3[8:1],6,{4}7/1V75[4:1],{8}1x/2x,3,{4}4,
{8}8-6[8:1],3,{4}2/8V24[4:1],{8}8x/7x,6,{4}5,
{8}4-8[8:1],2,{4}4,{8}5-1[8:1],7,{4}5,
{24}E2/6xqq3[2:1],B1,B8,E8,,,,,,,,,,,,,,,,,,{8}2,
1x-5[8:1],1,{4}1x<7[8:1]*>5[4:1],{8}1x,,,7,
8x-4[8:1],8,{4}8x>2[8:1]*<4[4:1],{8}8x,,,3,
{4}2>5[8:1],{8}1/2,8,{4}7<4[8:1],{8}8/7,1,
{4}2v5[8:1],8/2,7v4[8:1],1/7,
{8}8b>5[4:3],{16},,,,,,,,,,,,B8,C,
{8}B4,,,,,,,1,
{4}1bV35[4:1]/5bV71[4:1],1/5-1[8:1],{48},Cf,,,,,,,,,,,{8}7,7,
{4}4V28[4:1]/8V64[4:1],8/4-8[8:1],{48},Cf,,,,,,,,,,,{8}2,2,
{4}1V35[4:1],{8}6/1,7,{4}8V64[4:1],{8}3/8,2,
{4}1-5[8:1],1V35[4:1]*V75[4:1],{8}1x,,,2,
{4}2V46[4:1]/6V82[4:1],2/6-2[8:1],{48},Cf,,,,,,,,,,,{8}8,8,
{4}3V17[4:1]/7V53[4:1],7/3-7[8:1],{48},Cf,,,,,,,,,,,,,,,,,{8}1x,
{4}1x-4[8:1],1/6,8x-5[8:1],8/3,
{8}Cf/1x>6[8:3],,,,,,,8,
{4}8b<4[4:1]/4b>8[4:1],8/4-8[8:1],{48},Cf,,,,,,,,,,,{8}2,2,
{4}1>5[4:1]/5<1[4:1],1/5-1[8:1],{48},Cf,,,,,,,,,,,{8}7,7,
{4}8<4[4:1],{8}3/8,2,{4}1>5[4:1],{8}6/1,7,
{4}8-4[8:1],8x<4[4:1]*>4[4:1],{8}8x,,,7,
{4}7<3[4:1]/3>7[4:1],7/3-7[8:1],{48},Cf,,,,,,,,,,,{8}1,1,
{4}2>6[4:1]/6<2[4:1],2/6-2[8:1],{48},Cf,,,,,,,,,,,,,,,,,{8}8x,
{4}8x<5[8:1],8/3,1x>4[8:1],1/6,
Cf/8x<3[8:3],,,2,
{2}1pp5[4:3],B7/B6,
8qq4[4:3],B2/B3,
{1}1p8<1[4:5],
{8},,,,,,,1,
{4}1b-3[8:1],{8}7x/1x,7,4-8[8:1],5,6x/4,7,
6-8[8:1],5,4/6,{16}2,3,{8}4/1-5[8:1],8,{4}3x/1x,
{8}2-4[8:1],4-8[8:1],{4}2x,{8}7<4[8:1],7,{16}7x/3x,2x,1x,8x,
3x,2x,1x,8x,4x,3x,2x,1x,5x,4x,3x,2x,{8}1xh[8:1],3,
{4}8-6[8:1],{8}8x/2x,2,5-1[8:1],4,3x/5x,2,
3-1[8:1],4,3x/5x,{16}7,6,{8}5/8-4[8:1],1,{4}8x/6x,
{8}7V51[4:1],5,{4}7x,{8}2V84[4:1],8,{4}2x,
6<1[8:1],{8}6x/4x,4x,{24}E4,E3,E2,E1,E8,E7,{4}E6/E5,
Cf/8x<3[8:5],,,2q5[4:3],
1x,,,8,
1x>6[8:5],,,7p4[4:3],
8x,,,8,
8xqq5[4:3],,,B2/B3,
1xpp4[4:3],,,B7/B6,
5x<4[2:3],,,E3,
E2,E1,E8,E7,
5x<2[8:5],,,3p8[4:3],
4x,,,5,
4x>7[8:5],,,6q1[4:3],
5x,,,5,
5xpp8[4:3],,,B3/B2,
4xqq1[4:3],,,B6/B7,
{1}8xh[1:1],
{24}A3,A4,A5,6xqq1[8:13],
E
