&title=クリムゾン帝王
&artist=REDALiCE
&first=0.29
&des=LNRSCHZY
&lv_5=14
&inote_5=(230){1}1>8<1[8:27],,1>8[8:11]b,,
8-3-5<1[1:1],1>4-6-8[8:5],
{4}1h[2:1],3,8h[4:1],{16}6,5,4,3,
28,,28,,28,,28,,7,5,7,,1-5-1[2:1],4,1,,
{1}6h[1:1],
{8}1,8,15,6,1w5[8:1]/5,2,,,
3-8[8:1]/8,,3/7v4[8:1],,27,,35,1,4/7<4[8:1],8,27,,1pp5[8:3],,,,
{16}8<6[8:1],,,,4,3,2,,8<6[8:1],,,,4,3,2,,8<4[16:3],,,,4,3,2,1,8,7,6,5,4,,,,
{8}6-1[8:1]/1,,6/2v5[8:1],,72,,64,8,5/2>5[8:1],1,72,,8qq4[8:3],,,,
{4}1-3[4:1],3-8[4:1],8-4[4:1],4-7>5[8:5],7h[4:3],,,,
{8}5>3[8:1]/7,6,5pp6[8:2]/7,,2x/5>3[8:1],,1,1pp8[8:3],
,5,5-7[8:1],,5-1[8:1],,5,,
{16}2h[32:3]/8h[32:3],,,3h[32:3]/8h[32:3],,,4h[32:3]/8h[32:3],,,
5h[32:3]/8h[32:3],,,6x/8,5,4,3,
{4}2-8[8:1]/6-8[8:1],2-4[8:1]/6-4[8:1],26,{32}6x,7,8,1,,,,,
{8}3v8[8:1]/8,,3/7-4[8:1],,1>4[8:1]/7b,,15,6<1[8:1],,5,4w8[8:1],,4b,,,,
{16}17,,2,4,2,,6,5,6,,3,4,3,,6,5,{8}47,3,4/8>5[4:1],7,38,,,,
{4}2-8-6[4:1],6-4-2[4:1],4,1-5[8:1],17,{24}8-4[8:1],7,6,4,3,2,
{4},B1/B2,B5/B6,{24}1-5[8:1],2,3,5,6,7,{8},,B7/B8,,B3/B4,,4<7[8:1]/8>3[8:1],26,4b/8b,,,,
{4}7-1-3[4:1],3-5-7[4:1],5,8-4[8:1],82,{24}1-5[8:1],2,3,5-1[8:1]b,6,7,
{4},B8/B7,B4/B3,{24}8-4[8:1],7,6,4-8[8:1]b,3,2,,,,,,,B2/B1,,,,,,
{16}1,2,3,4,5,6,7,8,{8}1h[2:1]/5h[4:1],,,,
5-7[8:1],5,1,2,3-1[8:1],3,8,7,6-4[8:1],6,2-6[8:1],2,8h[4:1],,,,
58,4,58,7,48,3,28,7,
{16}16,,8,8,8,,37,,{24}25,1,8,7,6,5,2/4-8[8:1],1,8,7,6,5,
{4}24,2h[4:1],8h[4:1],{16}4,37,26,15,4/8>3[8:1],,,,4/8v5[8:1],5,6,7,{4}8qq3[8:7],8b,
,A5,B4,B6,
{16}7,4,7,,18,,2,4,{8}3,3,37,7,1h[4:1]/7,,
{16}5,62,73,84,5/1<6[8:1],,,,5/1v4[8:1],4,3,2,{4}1pp6[8:7],1b,
,A4,B5,B3,{16}2>5[8:1],5,1,4,2,,,,
{16}6,,7,5,7,,3,,2,4,2,,15,26,37,48,
1/5>2[8:1],,,,1/5pp6[4:1],8,7,6,5>8[4:1],,,,1hb[4:2],,,,
,,7,6,5-8[8:1],,,,4-1[8:1]/5,,,,4,,5<1[16:3],,,,2,3,4qq4[8:2],,,,
5,,6,,7,,8,,1,,5,,48,37,26,15,
8/4<7[8:1],,,,8/4qq3[4:1],1,2,3,4<1[4:1],,,,8hb[4:2],,,,
,,2,3,4-1[8:1],,,,5-8[8:1]/4,,,,5,,4>2[8:1],,,,7,6,5,,,,
{8}16,8,7-5-1[8:2],8,7,2,2,2,38,1,2-5[8:1],1,A2,,
16,8,7-5-1[8:2],8,7,2,2,2,38,1,2-4[8:1]*-8[8:1],1,A2,,
5x/7x,6,6,3x/5x,4,4,1x/3x,2,2,1x/7x,8,8,
B1/E2,B5/E6,3x,3>1[8:1],3,5x,5>3[8:1],5,7x,7<5[8:1],7,1xs5[8:3]b,1,,,,
1h[8:3],,,5,4/7h[8:3],,,3,
(220)2h[4:1]/5,,1,4>1[8:1]/8h[4:1],,4,7,,
(207)6h[8:3]/8b,,,5,4/7<4[8:2],,,2,
(185)2h[4:1],,1,3>8[8:1]/8h[4:1],,3,7,,
(160)1h[8:3]/6b,,,8,4/7h[8:3],,,5,
(130)4h[4:1]b/6<1[8:1],,6,3<6[8:1],,3,8>3[8:1]*qq5[8:3],,
(230){1}8b,4h[1:1],
{8}5,5<8[8:1],,4,4>1[8:1],,5,5h[8:1],
{1}Cf,,,,
{4}3/4h[4:1],2,3h[4:1]/4,1>4[8:1],18,7,5h[4:1]/6,7,5/6h[4:1],8<5[8:1],28,3,
{6}2h[12:1]/4h[12:1],2h[12:1]/5h[12:1],2h[12:1]/6h[12:1],
3h[12:1]/7h[12:1],4h[12:1]/7h[12:1],5h[12:1]/7h[12:1],
{8}E5,B4,8x-3[8:1],2x,2x-5[8:1],,B5/B6,,
E7,B7,5x-1[8:1],8x,8x-4[8:1],,B2/E3,,
3x,3x>8[8:1],4x,5x,5x<8[8:1],,B4/B5,,
1x,1x>4[8:1],8x,7x,7x<4[8:1],,B1/B8,,
{16}3,,3,,24,,24,,35,,35,,46,,46,,7,5,7,5,8,4,8,4,1,3,1,3,1<3[8:5],3,1,3,
{4}1b,,,,3b/4,2b/5,1b-5[8:1]/6-8[8:1],16,
{8}4,3,25,6,37,2,16,7,
4/8-4[8:1],,3-1[8:1]/8,,3/5-7[8:1],,5/8-4[8:1],,
38,2,16,7,48,3,25,6,
4/7-4[8:1],,3-8[8:1]/7,,7,7,1x/6x,25,
{16}4,3,2,1,8,7,6,5,4-6-8[4:1],,,,8,1,2,3,
{4}4qq3[4:1],4<6[8:1]/8x,8w4[8:1],8,
{8}4x/7x,4x/7x,3,26,26,7,5/8-4-2-6[4:3],58,
{1}Cf,1h[4:11],
{24}8x,7x,6x,5x,4x,3x,,,,,,,2x,3x,4x,5x,6x,7x,,,,,,,
8x,7x,6x,5x,4x,3x,,,,,,,2x,3x,4x,5x,6x,7x,,,,,,,
{16}1,2,3,4,15,6,7,8,1h[4:1]/5h[4:1],,,,,,,,
{1}1pp5[8:4]/6,4/8-6-4v7[2:1],
{4}1-3-5[4:1],5-7-1[4:1],1,5,{16}2,3,4,5,6,7,8,1,
{2}2-7[115#16:1]b/6-3[115#16:1]b,
{32}2bqq5>8[8:25]/6bqq1<4[8:25],Cf,,,,,,,{4},,,
{1},,,
{2}1>4[8:3],B2/B3,8<5[8:3],B6/B7,1s5[4:1],{16},,,,8,8,8,8,
{8}8z4[153.3333#8:1]*-5[153.3333#8:1],,,8b,,,,,
4/5h[8:3],,,3,2>5[8:1]/4,,8,,7<4[8:1],,5,,B2/B3/E3,,,,
5/4h[8:3],,,6,7<4[8:1]/5,,1,,2>5[8:1],,4,,8-4[8:1],,,,
3-1[8:1],,B5/E5,,8-4[8:1],,A7/E7,,3-1[8:1],,B5/E5,,8-4[8:1],,A7/E7,,
38,38,27,27,16,16,58,58,1,2,1w5[8:1]/5,6,1,,,,
47,3,24,5,46,3,26,7,5>2[8:1]/8,5,8-4[8:1],8,1-3-5[16:3],1,{16}5,6,7,8,
{8}1,1,48,3,25,6,57,4,3/8<5[8:1],8,2-6[8:1],2,4-6-8[16:3],4,1,1,
{16}2,3,4,5,6,7,8,1,26,,,,7-5[8:1],4,7,4,
{4}7-1[8:1],2-5[8:1]/7-3[8:1],2-8[8:1]/7,2/6>3[8:1],
{8}6,2-6[8:1],1,8,7>2[8:1],,5,4,
{1}3qq5[2:1],
{16}7,5,7,,3,4,2,,6,5,7,4,8,,,,
{8}38,7,16,2,13,8,27,3,
{16}6,5,6,,47,,3,4,3,,25,,1,8,7,6,
8-2[8:1],,8,,4-8[8:1],,4,,6,,6,,1,2,3,4,
8,7,6,5,8-4-8[4:1]b,7,6,5,8b,,,,,,,,1,2,3,4,1-5-1[4:1]b,2,3,4,1b,,,,,,,,
8,7,6,5,14,2,3,4,58,7,6,5,14,2,3,4,
{24}58,7,6,5,4,3,2,1,8,7,6,5,
{4}4,,2-7[8:1]/6-3[8:1],26,1>4[8:1]/5<8[8:1],15,
{16}5x/B5,6x/B6,7x/B7,8x/B8,1x/B1,2x/B2,3x/B3,4x/B4,5xbw1[350#4:1],
