&title=corps-sans-organes
&artist=cybermiso
&first=0.02
&des=KasumCiella
&lv_5=14
&inote_5=(105)
{1},,4b-1[2:1]/5b-8[2:1],4-1[8:3]/5-8[8:3],{8}4-1[4:1]/5-8-5[2:1],,,,,{32}E2,B2,B3,E4,{8}A4,36,{16}2h[16:1],7h[16:1],3h[16:1],6h[16:1],4h[8:1],5h[8:1],,,,,2b/7b,,18,2b/7b,36,,
4-2[8:1]/8,,,B7,,,B5,,1-3[8:1]/4-8[8:1],,,,,,,,4-1[8:1]/7,,,B6,,,B5,,4-7[8:1]/8-3[8:1],,,,,,,,4-8[8:1]/6,,,B5,,,E5,,4-6[8:1]/7-3[8:1],,,,,,,,4,5,6,7,8,1,2,3,45,,2b/7b,,1s5[12:1]/8,2b/7b,36,,
{1}1b<1[1:1]/5/Cf,{8}1<1[1:1],8,7,3,2q3[8:1]b,,,,1<4[8:5],,3,,2q3[8:1]b,,,,1h[2:1]/Cf,,,,,2b/7b,{16}18,2b/7b,{8}36,
7-3[8:1],7,8-4[8:1],8,1-5[8:1],1,2-6[8:1],2,3-7[8:1],4,5-1[8:1],6,7-3[8:1],8,1,2,{16}14,2,3,47,6,5,14,2,38,7,6,25,3,4,15,8,{24}47,6,5,24,3,4,56,7,8,13,2,1,4bq8[12:1]/8bq4[12:1],,,,,48,48,,,D1/D5,,,
3b/7b,,,1/2-5[12:1],,,35,,4,2,,6-1[12:1],,7,,8^3[12:1]*^5[12:1],,6,4,,,,,,4h[8:1],,,8b,,,1,1,1V38[6:1],1,,3/5V74[6:1],,,1b,,,5b,,,,1h[8:1],,,
3-7[16:1],4,5,6,7,8,1h[4:1]/3,,,6x,,,6-2[16:1],5,4,3,2,1,6/8h[4:1],,,3x,,,3,4,5,6,7,8,1h[8:1]/3,4,5,6,7,8,1h[8:1]/5,4,3,2,1,8,5/7h[8:1],4,3,2,1,8,
6bh[8:1]/7bh[12:1],,,,,,{48}7,6,7,{32}6,7,{24}6,7,6w2[12:1],,,7,6,,,,,,4xbh[12:1]/8xbh[12:1],,,15,,3,4-8[12:1],,6,5,,3-6[12:1],4,,2-7[12:1],,,3b,,,2b,4-8[12:1],,,4,,,
4/6-2[8:1]*-4[8:1],,,7,,,6,,,,,3,3-1[8:1]*-7[8:1],,,4,,,3,,,,,,8b-4[12:1],,,1b/7b,,,2xb/8xb,,,3-7[12:1],,6xb,4b,,5,3xb,,,8,,2xb,1b,,,
37,,6,5p1[12:1],,,28,,6,4h[4:1],,,,,,8h[4:1],,,B2,B1,B8,B7,,,6-1[8:1],5,4,3h[8:1],,,6-3[8:1],,,2-6[8:1],,,6-2[8:1],,2bh[24:1],,,,8,,,5h[8:1],,,
6-2[16:1],7,8,1,2,3,4h[4:1]/6,,,2x,,,3-7[16:1],2,1,8,7,6,3/5h[4:1],,,7x,,,6,7,8,1,2,3,4h[8:1]/6,7,8,1,2,3,4h[8:1]/7,8,1,2,3,4,7,6,5,1,2,3,
8q4[8:1]/A4,7/A3,6/A2,5h[8:1]/A1,,,8,,6,7,,5h[8:1],,,8,5p7[8:1],,,3h[8:1],,,,,,{64}1b,2,3,,,,,,1b,2,3,,,,,,1b,2,3,,,,,,{24}8,,1-6[12:1]/7,,,2b/6bq3[12:1],,,1b,5,,,4h[8:1],,,
5-1[16:1],6,7,8,1,2,35,,,1x/5xh[8:1],,,4-8[16:1],3,2,1,8,7,46,,,4xh[8:1]/8x,,,1,3,2,4,3,5,4,6,5,7,6,8,5,4,3,6,5,4,7,6,5,8,7,6,
{12}1bh[4:7]/5b,,,7,6,5,4,,,6,5,4,3,,,5,4,3,2q3[8:1]b,,,,,,1h[1:1],,,7,6,5,4,,,6,5,4,3h[2:1],D2,E3,D4,E5,D6,E7,D8,E1,D2,E3,D4,
8bh[2:3],,,2x,3,4h,5b,,,3x,4,5h,6b,,,4x,5,6h,7b-3[12:1],,,1b/7b,,,{16}24,3,57,6,24,3,57,6,13,2,68,7,13,2,68,7,{32}1,8,1,8,1,8,1,8,2,7,2,7,2,7,2,7h[32:5],{4}2h[8:1],{48}18,27,36,{16}45,2b/7b,,
5h[16:1]/6,8^5[16:1],1h[16:1]/2,4,,{48}4,3,2,{16}1,,3/4h[16:1],1^4[16:1],7/8h[16:1],5,,{48}5,6,7,{16}8,,5/6h[16:1],3^8[16:1],1/2h[16:1],7,,{48}7,6,5,{16}4,,3h[16:1]/4,6^1[16:1],7h[16:1]/8,2,,{48}2,3,4,{16}5,,
8-3[16:1],3-1[16:1],1-5[16:1],4,8,,4,,2-8[16:1],8-3[16:1],3V17[12:1],7,2,,5,,6b^3[8:1],6b,E2,,E1,,E8,,4,6b,8b,2b,{32}4,5,6,7,{16}48,,
7h[16:1]/8,1p4[16:1],2h[16:1]/4,5h[8:1],,{96},D6,A6,D7,A7,D8,{16}A8,,1/2h[16:1],8q5[16:1],5/7h[16:1],4h[8:1],,{96},D4,A3,D3,A2,D2,{16}A1,,
3-7[16:1],7^2[16:1],1,5h[16:1],,{96}A3,D4,A4,D5,A5,D6,{16}A6,,7-3[16:1],3^6[16:1],5,1h[16:1],,{96}A7,D8,A8,D1,A1,D2,{16}A2,,
2x-4[16:1],6x-8[16:1],1xv4[16:1],5xv8[16:1],2x,6x,1x,5x,2x-4v1[8:1],6x-8v5[8:1],1x,5x,2x,6x,,,
2x,2x,2x,2x,1b/2x,1b/2x,1b/2x,1b/2x,1b/8x,1b/8x,1b/8x,1b/8x,{24}1b,7b,3b,{16}1b,,
{16}2h[16:1],8h[16:1],1h[16:1],7h[16:1],2-6[16:1],8,1,7-3[16:1],2,4,4-1[16:1],7,5,5,4,6,7h[16:1],1h[16:1],8h[16:1],2h[16:1],7-3[16:1],1,8,2-6[16:1],7,5,5-8[16:1],2,4,4,5w1[16:1],,
3,,5b,,3/7-5[16:1],,6,8-4[16:1],7,1,1-3[16:1],8,2,2,1,,5-1[16:1],5,3v5[16:1]/7v5[16:1],,15,,,,{32}4,6,4b,6,4b,6,4b,6,3b,7,2b,8,{16}1b,,
1-5[16:1],2,8-4[16:1],7,1,7,8,2,7-4[16:1],8,2-5[16:1],1,7,1,2,8,3-8[16:1],4,6-1[16:1],5,3,7,6,2,3,4,5,6,37,48,1b/5b,,
8-6[16:1],8-2[16:1],8v5[16:1],8v3[16:1],8,,,,1^4[16:1],1^6[16:1],1-5[16:1],1,1,,,,8,8,8,8,{32}8,4,8,4,8,4,8,4,{48}8bpp3[4:1],7,6,5,4,3,2,1,8,7,6,5,{4},1-5[8:1],,1-5[8:1],,1-5[8:1],,1-5[8:1],,
{16}1-5[8:1]/8b,,5b/6,,1/4b,,7,7,1-5[8:1],8,8,2,1,3,3,,1-5[8:1],8,2,7,1,,{24}6,,8,1-5[8:1]/7,,2,5,,6,1,6,7,8,,,
1-5[8:1]/3bh[8:1],,,,,,7,,,2,,8h[24:1],1-5[8:1],,2h[24:1],,,6h[24:1],,,,7bh[4:1],,,{32}1-5[8:1],2,3,4,5,6,7,8,{24}1,,,8,,,1-5[8:1],,7b,5-2[8:1],,2b,4,,,6b,,,1-5[8:1],,,2,8,3,1,,,4,,,1-5[8:1],,68,,,2,8,,,6,,,1-5[8:1]/7,,25,,3,4,1,,6,,8,,1-5[8:1]/2,,37,,8,4,1,,3,,2,,
{4}1-5[8:1]/Ch[12:1],,1-5[32:1]b/Ch[12:1],{384}B1/E1/E2,C,B5/E5/E6,
