&title=Poppy
&artist=Daily天利/Roon_kun
&first=0.08
&lv_5=14
&des_5=RE_ZEUTR0N
&des=RE_ZEUTR0N
&inote_5=
(220){4},{1},{4},{16}8x,
8x,8x,8x,8x,8x,8x,8x,
{1}8>8[32:63],
,8>8[1:2],
{8},,,,,,,,1h[8:3],
,,2h[8:3],,,{4}3h[4:1],
{8}8h[8:3],,,7h[8:3],,,{4}6h[4:1],
{1}4b-2>3-7<6-1[16:25],
{8},,,,,,,,4/6<3[0.2727##2.1818],
,,3h,,,{4}5h,
{8}6h,,,4h,,,{4}5h,
{16}6<3[0.2727##2.1818],,{1},{4},,,{8},6<5[4:13],
,,B5,,,{4}B4,
{8}B7,,,E2,,,{4}B8,
{1}6<1[4:5],
{8},,,,,,,,3h[8:1],
4,3h[8:1],4,3h[8:1],2,3h[8:1],1,
2h[8:1],8,2h[8:1],7,2h[8:1],6,2h[8:1],6,
{4}7/4,3/7,{8}7/4,3/6,{4}2/5,
1h[8:1]/8h[8:1],8/1,8-5[8:1]/1-4[8:1],C/B5/B4/B8/B1,
3b/6b,3>1[8:1]/7<5[8:1],3/7,{8}8x/4x,8x/4x,
{4}8x/4x-8b[8:1],6-2b[8:1],,3/7,
8-4[8:1],8-6[8:1]/3-1[8:1],,7b/2b,
{24}1x,2x,3x,4x,7x,6x,5x,4x,,,,,{8}1w5[8:1],1,{4}1b,
{16}3x,7,3,7,3x,6,2,6,2x,6x,2,5,1,5,1,5,
1,5,1,6,1,7,1,8,1,8,1x,8x,{4}8x/1x,
{8}2h[16:1],7h[16:1],2h[16:1],7h[16:1],3h[16:1],7h[16:1],4h[16:1],7h[16:1],
4h[12:1],7w3[16:3],,7b/B8/B6/B7,{24}
||这是一个标记~
,
||这是一个标记~
,
||这是一个标记~
,
||这是一个标记~
,
||这是一个标记~
,
||这是一个标记~
,{16}8x
||这是一个标记~
,7,1,6,
2x,5,3,6,4x,7,3,8,2x,8,2,8,2x,3,4,5,
1x,2,3,4,8x,1,2,3,6x,3x,6x,3x,7,2,7,2,
8,1,8,1,7,2,7,2,6,3,6,3,7,4,{8}7,
{4}4bw8[8:1],4b,{2}4bw8[8:1],
{8}2h[16:1]/3x-5[8:1],2h[16:1],2h[16:1],2h[16:1],2h[16:1]/6x-4[8:1],2h[16:1],2h[16:1],2h[16:1],
{16}2x-4[8:1],7x-5[8:1],2x,7x,{4}2x,{16}3bx,2,1,8,7,6,5,4,
{4}3b/6b,{8}1h[16:1]/7h[16:1],1h[16:1]/7h[16:1],2h[16:1]/8h[16:1],2h[16:1]/8h[16:1],3h[16:1]/7h[16:1],4h[16:1]/6h[16:1],
4/5,4/5,{4}5>2[8:1]/4<7[8:1],,,1bx/7b-4[8:1],
{8}7/1h[16:1],2h[16:1],2h[16:1]/7-5[8:1],1h[16:1],7/1h[16:1],3h[16:1],
3h[16:1]/7-3[8:1],4h[16:1],7/4h[16:1],5h[16:1],5h[16:1]/7-1[8:1],4h[16:1],{4}7/4h[16:1],
{8}5-1[8:1],4/6,{16},,,,8,7,6,5,8,1,2,3,
5,6,7,8,5,4,3,2,1,8,7,6,{4}5/4,
{1}Cf/5xz1b[4:3]*s1b[4:3],
Cfh[4:3],
{4}2x>4-8<6[4:3],,,6x>4[4:1],
{24},,,,,,,,A4,B4,C,B8,{2}8xh[4:1],
{8}1x/7x,2,{4}3-7[4:1]/7-3[4:1],{2}7<4[4:1]/3>8[4:1],
{8},4xqq8b[2:3],,,{2}7-5[8:1],
{4}8-6[16:3],{8},,,,5x,6x,
{16},,,,,,7x,6x,{8}5x,{16}2x,3x,{4}4x<4[16:59],
{1}4h[2:1],
{2}4,{4}5,6,
{8},,,,6,7,{4}8,
,,,,{1}5p8[2:1],
{2}2s6[2:1],6z2[2:1],
{1}2-6[4:3],
{8},,6h[8:1],7h[8:1],8h[8:1],1h[8:1],2h[8:1],3h[8:1],
4-8[8:1],,,3,,4,{4}5,
{2}7h[8:1],B8/C/B1,
{4}7,{8}6,5,,5,{4}4,
{8},1,8,3,6,2,7,4,
{1}3h[2:1]/6-8-2-4-6[0.2727##1.9091],
{16},,,,,,,,,,,,,,{48},,,,,,{24},
,,,,4-2-5[0.2727##1.3636]/6-8-5[0.2727##1.3636],{4},,,{16},,
,,,,,,,,,,,,,,{1}3w7[0.2727##1.0909],
{2},{8}2b/6b,4b/8b,,,{1}6w2[1:1],
{8},,,,5b/1b,3b/7b,{16},,,,4w8[0.2727##1.0909]/5w1[0.2727##1.0909],
,,,,,,,,,,,,,,,,,,,,,,,{8}6b/1b,
3b/8b,,,2v4[4:1]/8v6[4:1],
,,,,3/7,{4}3/7,
,,{2}7h[#0.5454559],
(110){8}1-4[8:1],8,1/7-4[8:1],8,7,2>6[2:1],,2,
2b,3b,{16}4b,3b,{8}2b,{16},2bh[16:3]/7bh[16:3],,,,,{8}6/3,
{4}4h[8:1]/5h[8:1],{8}4<7[8:1],3>8[8:1],4,3,{16},,4,6,
(220){2}4,{8}2b/7b,6,{4}4b/5b,
{8}4,5,4,5,{16}3,6,3,6,2,7,2,7,
{4}1-3[8:1],7/1-5[8:1],7/1-3[8:1],1-5[8:1]/8-6[8:1],
1-3[8:1]/8-4[8:1],1-5[8:1]/8-6[8:1],1-3[8:1]/8-4[8:1],8b/1b,
E7/C/E3,{8}8-4[8:1],8,8/1-5[8:1],1,1/7-3[8:1],7,
7/2-6[8:1],2,{4}2/7b,{32}4/5,3,2,1,8,7,6,5,,,,,,,,,{4}1/8,
{32}2,3,{16}4,{32}7,6,{16}5,{32}B5/E5/B4,C,{16}E1/B8/B1,,,{4}1x>4[32:3],
{32}1/8,7x,6x,5x,,,,,{8}B5/E5/E6,C,{4}B1/E1/E2,1pp5[8:3],
1x/8x-4[8:1],8x,3b,1x>4[8:1],
{24}1/8x-4[12:1],7x,6x,5x,{96},,,,,,,,{32}8/7-3[32:3],6,{16}5,{32},,,,7/8<5[8:1],1,{16}2,{48},,,,,,{24}8/1,2,3,4,,,{4}4x/5x,
3x,6x/4x,3x,
6x/3x,{8}4-1[8:1]/5pp8[2:1],3/6,{24},,,,,,,,,,,,3,
2,{12}1,{24},,{8}6/2,4/8,{4}1bw5[8:1],1b,
{24}4x,3,{12}2,{24}6,7,{4}8,1-4[8:1]/8-5[8:1],1b/8b,
3/6,{8}2/7,4v1[8:1]/5-8[8:1],,4/5,,,{4}8x/1-5[8:1],
{8}1,7,,1/8,,,1/7,
1x-5[8:1]/7x-3[8:1],,1/7,,,2/6,,
{24}2x,2x,2x,2x,,,1x,1x,1x,1x,,,8x,8x,8x,8x,,,7x,7x,7x,7x,,,{1}1<8<7<6>5[2:1]/8>1>2>3<4[2:1],
4p1b[4:9]/5-8[4:1],
{24},Ch[6:5],{1},{4},,{16},,{24},{8}3,
4,
{4}3,{8}4/3,3/4,,3h[8:3],{4}6v8[8:1],
6,{8}1,2,,,,,4>5[4:3],
,,C,,,{4}B8/B7,
B1/B2,,,8-4[8:1],
{8}8,,,5/3,,,{4}6/2,
{2}7/1,{4}1v4b[8:1]/8-5b[8:1],8/1,
{8}3h/6h,,,2h/7h,,,{4}3h/8h,
{2}1h/6h,3h[4:1]/6h[4:1],
{8}3h/6h,5,3/6,4,3h/6h,5,3/6,4,
2,2,2/7,7,7/1,1,8/1,8,
{4}8b,1b,{8}8b,1b,{16}8b,1b,8b,1bz5b[0.2727##0.6136],
{24}8bs4[0.2727##0.5455],,,,,,,,,,,,,,,,,,,,,,,,{8}1b,
2,3/8b,7,6/1b,2,3/8b,7,
6/2,7,{24}1/8b-4[8:1],2,3,4,,,{4}8,{12}1-3[8:1],1x,1x,
{4}8x/1x-5[12:1],{24}8x/1x-3[12:1],7x,{6}6x,6x/1x-5[12:1],{12},{4}1x-3[12:1]/8x-4[12:1],
1-5[12:1]/8-6[12:1],1-3[12:1]/8-4[12:1],1-5[12:1]/8-6[12:1],8b/1b,
{8}4/8<6[8:1],4,3/8-5[8:1],3,2/8-4[8:1],2,{16}1/8<6[8:1],2,{8}3,
{4}1-4[8:1]/8-5[8:1],8/1,{8}3/7,2/8,8/1>3[8:1],8,
7/1-4[8:1],7,6/1-5[8:1],6,{16}6/1-4[8:1],7,{8}8,{4}1>3[8:1]/8p5b[32:13],
{2}1/8,{4}4bxw8[8:1],4,
{8}8bx/1bx,1bx/8bx,{16}1bx/8bx,1bx/8bx,2bx/7bx,3bx/6bx,{4}4bx-8b[8:1]/5bx-1b[8:1],4bx/5bx,
{8}3bx,{24}3bx,8bx,7bx,{8}6bx,4bx,{24}4bx/8bx,1bx,{12}2bx,,{4}4b-7b[12:1]/5b-2b[12:1],
{16},,,,1bx,1bx,1bx,1bx,1bx,1bx,1bx,1bx,{8}1bx/8bx,3bx/6bx,
7b/2b-6[8:1],8b,2b-4[8:1],5b,2bw6b[8:1],6b,{4}2b,
{8}1/8,7,6/2,3,4-8[16:1]/5-1[16:1],4/5,{4}5/4,
{8}1bx/8bx,3b/4b,{4}5b/6b,{8}5/4,3,6/2,7,
{32}1bx,2,3,4,5,6,7,8,1b,2,3,4,5,6,7,8,1b,2,3,4,5,6,7,8,1b,2,3,4h[32:5]/5h[32:5],,,,,,,,,{16}8,
6,{8}7,{16}1,3,{8}2,{16}8,6,{4}7,
{1}1bw5b[1:2]/8bw4b[1:2],
,,E5,
E
&lv_6=1
&des_6=
&inote_6=
(125)
E
