&title=olvido
&artist=ADA feat AKA
&first=0
&des=nameless
&lv_5=14+
&des_5=nameless
&inote_5=
(175){4},{1},{4},{32}8bx/1bx>1[0.3429##9.2571],
2x/7x,6x/3x,5x/4x,,,,,,,,,,,,,{2}D2,
B2,
D3,B3,
D4,B4,
D5,B5,
D6,B6,
D7,B7,
D8,Cfh[1:1],
{4},2-6[8:1],{24},B2,{12}B6,,,,,{4}6h[8:1]/7h[4:1],
3h[4:1],7,7h[8:5]/3h[4:3],
,,7h[4:1],{8}3,2h[8:5]/6h[4:1],
,,{4}6h[8:1],6,2h[2:1]/6h[2:1],
,,6b/2b-6[8:1],{8}7b,8b-4[8:1],
,,{4}3b,{8}1/8,1/8,2/7,7/2,
3/6,6/3,5/4,4/5,{16}4,5,3,6,2,7,1,8,
{32}1,2,3,4,5,6,7,8,{48}1,2,3,4,5,6,7,8,1,2,3,4,{32}5b-1[16:1],,,,,,,,,Cf,{4},,{16},,,{8}6,
5,4,3,
{1}2h[1:1]/E8,
{2}B7,{8}3,4,5,6,
{1}7h[1:1]/E4,
{2}B3,{8}6,4,5,3,
{1}6h[1:1]/E2,
{2}B2,{8}3,5,4,6,
{1}3h[1:1]/E8,
{16}5,4,5,4,{4}3-5s1[8:1]/6-4z8[8:1],3b/6b,2h[4:1],
{8}6v3[8:1],2,{4}6,2h[4:1]/4v7[8:1],{8}4,5h[8:1],
{16},7h[8:1],,,{4}5-7>8[8:1]*-3>2[8:1],{8}5b,A8f/A2f,{4}1h[8:1],
{8}2/8,3/7,6/4,5-1[8:1],,5,{4}3>2-8<7-5>4[4:1],
{32},,,,,,,,,,,,,,,,4b,3/5,{16}6h[16:3]/2h[16:1],,,{4}2,
{8}2-7[8:1],7,{4}2,6-3[8:1],{16}6,,,4,
,,{8}4,{4}4-1[8:1],{8}4b,5,3,6,
2,7,{32}1,2,3,4,5,6,7,8,{2}5b/1bh[2:1],
{16}8x,7x,6x,5x,{32},,,,,,,,1bx,2x,3x,4x,,,1bx>1[4:1],2x,3x,4x,,,1bx,2x,3x,4x,
,,,,,,,,8bx,7x,6x,5x,,,8bx-4[4:1],7x,6x,5x,,,8bx,7x,6x,5x,{4},,,{32}2bx,
3x,4x,5x,,,2bx-5-8[8:1],3x,4x,5x,,,2bx,3x,4x,5x,
,,,,,,,,7bx,6x,5x,4x,,,7bx,6x,5x,4x,,,7bx,6x,5x,4x,{16}E8,B7,B6,E6,
{4},,{24}3b/8xh[24:1],4,{12}5,{24},8xh[24:1]/3bpp1[24:5],4,5,,3b/8xh[24:1],4,5,
,,,,,,6bx/1xh[24:1],5,4,,,1xh[24:1]/6b>6[24:13],5,4,,6b/1xh[24:1],5,4,{4},,,{16}4b,
5,3,6b,2,7,1b,8,
{32}1,2,3,4,5,6,7,8,{48}1b,2,3,4,5,6,7,8,1b,2,3,4,{4}5b-1[2:1],5,
3,8,{8}2/5bv7<6v8[4:1],3b,{4}2/5b,
{8}2,3,2/7,6/2bv4>3v5[4:1],7b,2b/6,,6,
7,6/4,,6/5bv3<4v2[4:1],8b,5b/7,,7,
8/3,7,,5/1bv3>2v4[4:1],6b,1b/5,,5,
6/3,5,,1-4[8:1],1,1-6[8:1],,1>4[8:1],
2,1,,8-5[8:1],8,8-3[8:1],,8<5[8:1],
7,8,,3/6,5b/4b,3/6,,2/7,
{2}4h[8:3]/5h[8:3],{16}5b/4b,3,2,1,5,6,7,8,
{32}4b,3,2,1,8,7,6,5,4b,3,2,1,8,7,6,5,{4}4b/8bh[8:3],{8}5,3,
,,{4}2bh[8:3],{8}5,7,8<5[8:1],1,
2,3>8[8:1],4,5,{4}6bh[8:3],{8}4,3,
,,{4}7bh[8:3],{8}4,2,1>4[8:1],8,
7,6<1[8:1],5,4,3<6[4:1],2,{4}1,
{24}1,2,3,4,5,6,7,8,1,2,3,4,5/8,7,6,5,4,3,8,7,6,5,4,3,
{4}8/2-8-4[2:1],2-6[4:1],{8},,,,5,
5,3,3,{16}6,2,6,2,7,1,7,1,
{32}8b,7,6,5,4,3,2,1,{48}8b/4,5,6,7,8,1,2,3,4,5,6,7,{2}8bpp2pp4pp6pp8b[4:21],
,,1xh,
3xh,
,,5xh,
7xh,
{4},,,,Cfh[2:1],
7b-3[0.3429##0.1714],{8},,,2b-6[8:1],
,,8b,8b,,,,,,,{4}5-8[8:1]*-2[8:1],
5b,1h[4:1],
{8}6,B6,{4}3/7h[4:1],2h[4:1],{8}B7,B6,
{24}3,4,3,4,3,4,2,5,2,5,2,5,{8}1/6h[4:1],{32}E1,E2,E3,E4,E5,E6,E7,E8,D1,D2,D3,D4,
{8}D5/B4/E5/B5/8x-6-2[8:1],,,3,{24}3/1-3-6[8:1],,,,,,,B8,B7,E7,,,{8}5,
2/8v5[8:1],1b,{32}2,B2f,Cf,B5f,{8}A5f,4,{4}4/6h[4:1],
{8}5-7v5[4:1],6-2[8:1],{4}8/5,{8},1,{16}3/1h[32:7],E4,E5,E6,
1,1,5,5,2,2,6,6,{32}5/1,4/8,3/7,2>6[32:5]/6<2[32:5],,,,,,,,,,,,,,,,,{8}Ch[8:1],
{4}B3f/B2f/B7f/B6f/E7f/E3f,{16}7/2h[4:1],,,5,,,,,2,
8,3,7,2,8,4,6,5bw1[8:1],,,,,Cf,,,,,,,{8}1h[4:1],
6,7h[4:1],2,{4}2,
{16}1,1,3,3,5,5,7,7,{2}1<8v5[8:1]*>2v5[8:1],
{16}4,6,3,7,{8}8/2h[4:1],5,{4}5h[4:1],{16}4,3,6,7,
3,2,7,8,{4}5b/1bh[4:1],{32},B1f,Cf,B5f,{8}1xV74[4:1]/5x-7-2[4:1],,,,,{4}8h[4:1]/6h[8:1],
{16}7,7,7,7,7,7,7,7,
7bw3[8:1],,,,,Cf,,,1,5,1,5,1,5,1,5,
{24}8,6,8,6,8,6,7x,7x,7x,7x,7x,7x,{2}Cfh[2:1],
B7f/B6f/E7f/B2f/B3f/E3f,{32}2b,3,4,5,,,2b,3,4,5,,,2b,3,4,5,
{16}8,1,8,1,{32}7b,6,5,4,,,7b,6,5,4,,,7b,6,5,4,{16}1,8,1,8,
{32},,,,,,,,,,,,,,,,1b,2,3,4,,,2b,3,4,5,,,3b,4,5,6,
{16}8,1,8,1,{32}8b,7,6,5,,,7b,6,5,4,,,6b,5,4,3,{16}1,8,2,7,
{32},,,,,,,,,,,,,,,,1b/8b,2x/7x,6x/3x,5x/4x,,,4bx/5bx,3x/6x,7x/2x,8x/1x,,,1bx/8bx,2x/7x,6x/3x,5x/4x,
,,,,,,,,1bx/5bx,2x/6x,3x/7x,4x/8x,,,5bx/1bx,4x/8x,3x/7x,2x/6x,,,1bx/5bx,2x/6x,3x/7x,4x/8x,{4}5xV38[4:1]/1xV74[4:1],
{16},,,,,,,,4b,5,3,6b,2,7,1b,8,
{32}1,2,3,4,5,6,7,8,{48}1b,2,3,4,5,6,7,8,1b,2,3,4,{2}5b-1[8:13],
{4},,,5,
5-1b[8:1],5,{8}8b/2bh[8:1],6,{4}4/2>5[4:1],
{8}4/2,6,{4}7,{8}1b/7bh[8:1],3,{4}5/7<4[4:1],
{8}5/7,3,{4}2,{8}5b/3bh[8:1],7,{4}1/3>8[4:1],
{8}1/3,7,{4}6,{8}4b/6bh[8:1],2,{4}8/6<1[4:1],
{8}8/6,2,{4}3,{8}8/1-4[8:1],2,{4}1/3-6[8:1],
{8}3/5-8[8:1],5,{4}5/2,{8}4/5-8[8:1],6,{4}5/7-2[8:1],
{8}7/1-4[8:1],1,{4}1/6,{8}1<6[8:1],6>3[8:1],{4}3>8[8:1],
{8},C,{16},,,,1b/8b,2,3,4,8,7,6,5,
{32}1,2,3,4,5,6,7,8,1,2,3,4,5,6,7,8,{4}1b/4bh[4:1],{8}3,2/7,
,,{4}8b/5bh[4:1],{8}6,7/2,,,3-7[8:1],
7-1[8:1],{4}1,5bh[4:1],{8}3,2/7-3-1-5[4:1],
,,{4}4bh[4:1],{8}6,7/2-6-8-4[4:1],,,{4}5h,
1,{2}8bh[2:1],
{24}1,2,3,4,5,6,1,2,3,4,5,6,7,8,1,2,3,4,{4}5b/8bh[4:1],
{24}7,6,5,4,3,2,1,8,7,6,5,4,{32}1b,2,3,4,5b,6,7,8,1b,2,3,4,5b,6,7,8,
1b/5bh,2,3,4,5b/1bh,6,7,8,1b/5bh,2,3,4,5b/1bh,6,7,8,{2}5bh/1bw5[1.3714##0.1143],
,1b,
,,,5h[1:1],
{4},,,,7h[#5.657135],
,,Ch[4:11],
{1},,{4},,{8}B2,
B4,B8,B6,
B6,B8,B4,B2,
E
