&title=Fires of Destiny
&artist=Jehezukiel
&first=1.67
&des=
&smsg_5=
&des_5=Neopharmazz
&lv_2=4
&lv_3=7+
&lv_4=10
&lv_5=13+
&inote_2=(155){8}
1,,,,1,,,,
2,,,,2,,,,
3,,,,3,,,,
4,,,,4,,,,
5,,,,5,,,,
6,,,,6,,,,
7,,,,7,,,,
8h[4:3],,,,,,,,
1,,1,,1,,,,
2,,2,,2,,,,
3,,3,,3,,,,
4,,4,,4,,,,
5,,5,,5,,,,
6,,6,,6,,,,
7,,7,,7,,,,
8,,8,,8,,,,
1,,1,,12,,,,
2,,2,,23,,,,
3,,3,,34,,,,
4,,4,,45,,,,
5,,5,,56,,,,
6,,6,,67,,,,
7,,7,,78,,,,
8,,8,,81,,,,
1-4[4:3],,,,,,,,
,,,,,,,,
8-5[4:3],,,,,,,,
,,,,,,,,
2-5[4:3],,,,,,,,
,,,,,,,,
7-4[4:3],,,,,,,,
,,,,,,,,
3h[64:33],,(150),,(140),,(130),,
(120)4h[2:1],,,,(110),,(100),,
(90)5h[2:1],,,,,,(73),,
(155)6b,,,,,,,,
7,,7,,8,,8,,
1,,1,,2,,2,,
3h[2:1],,,,,,,,
4h[2:1],,,,,,,,
5,,5,,6,,6,,
7,,7,,8,,8,,
1,,1,,2,,2,,
3h[2:1],,,,,,,,
4h[2:1],,,,,,,,
5,,5,,6,,6,,
7,,7,,8,,8,,
1,,1,,2,,2,,
3h[2:1],,,,,,,,
4h[2:1],,,,,,,,
5,,5,,6,,6,,
7,,7,,8,,8,,
1^4[2:1],,,,,,,,
5^8[2:1],,,,,,,,
1,,1,,8,,8,,
7,,7,,6,,6,,
5-2[2:1],,,,,,,,
1-6[2:1],,,,,,,,
,,5h[2:1]/4h[2:1],,,,,,
,,4,,3,,2,,
1-4[2:1],,,,,,,,
8-5[2:1],,,,,,,,
2,,2,,2,,,,
7,,7,,7,,,,
3,,3,,3,,,,
6,,6,,6,,,,
,,6h[2:1]/5h[2:1],,,,,,
,,3h[2:1]/4h[2:1],,,,,,
2,,2,,1,,1,,
8,,8,,18,,,,
7,,7,,2,,2,,
6,,6,,3,,3,,
5<4[2:3],,,,,,,,
,,,,,,,,
,,5b/4b,,,,,,
,,,,,,,,,,,,,,,,
,,,,,,,,,,,,,,,,
,,,,,,,,,,,,,,,,
,,,,,,,,,,,,,,,,
,,,,,,,,,,,,,,,,
,,,,,,,,,,,,,,,,
E
&inote_3=(155){16}
7,,,,,,,,8,,,,,,,,
1,,,,,,,,2,,,,,,,,
3,,,,,,,,4,,,,,,,,
5,,,,,,,,6,,,,,,,,
78,,,,,,,,81,,,,,,,,
12,,,,,,,,18,,,,,,,,
72,,,,72,,,,63,,,,63,,,,
5h[2:1]/4h[2:1],,,,,,,,,,,,3b/6b,,,,
8,,,,8,,,,8,,,,8,,,,
7,,,,7,,,,7,,,,7,,,,
6,,,,6,,,,6,,,,6,,,,
5,,,,5,,,,45,,,,,,,,
1,,,,1,,,,1,,,,1,,,,
2,,,,2,,,,2,,,,2,,,,
3,,,,3,,,,3,,,,3,,,,
4,,,,4,,,,54,,,,,,,,
8,,,,1,,,,8,,,,1,,,,
7,,,,2,,,,7,,,,2,,,,
6,,,,3,,,,6,,,,3,,,,
5,,,,4,,,,45,,,,,,,,
5,,,,5,,,,4,,,,4,,,,
6,,,,6,,,,3,,,,3,,,,
7,,,,7,,,,2,,,,2,,,,
8,,1,,8,,1,,8,,,,1b/8b,,,,
7<2[4:5],,,,,,,,,,,,,,,,
,,,,,,,,,,,,,,,,
1<4[4:5],,,,,,,,,,,,,,,,
,,,,,,,,,,,,,,,,
8z4[1:1],,,,,,,,,,,,,,,,
,,,,,,,,4h[2:1],,,,,,,,
5h[2:1],,,,,,,,4z8[1:1],,,,,,,,
,,,,,,,,,,,,,,,,
4^1[8:5],,,,(150),,,,(140),,,,(130),,,,
(120)6>1[8:5],,,,,,,,(110),,,,(100),,,,
(90)8<1[8:5],,,,,,,,,,,,(73),,,,
(155)2h[4:3]/7h[4:3],,,,,,,,,,,,,,,,
1,,1,,1,,,,2,,2,,2,,,,
3,,3,,3,,,,4,,4,,4,,,,
5,,5,,5,,,,6,,6,,6,,,,
7,,7,,7,,,,8,,8,,8,,,,
1,,1,,21,,,,2,,2,,32,,,,
3,,3,,34,,,,4,,4,,45,,,,
5,,5,,65,,,,6,,6,,67,,,,
7,,7,,78,,,,8,,8,,81,,,,
1,,1,,17,,,,8,,8,,82,,,,
2,,2,,28,,,,7,,7,,71,,,,
6,,6,,64,,,,3,,3,,35,,,,
6,,6,,65,,,,3,,3,,34,,,,
5,,5,,53,,,,4,,4,,46,,,,
4b/5b<4[8:4],,,,,,,,,,,,,,,,
6,,6,,5,,,,3,,3,,4,,,,
7,,7,,8,,,,2,,2,,1,,,,
6,,4,,6,,4,,6,,4,,6,,,,
3,,5,,3,,5,,3,,5,,3,,,,
7,,8,,7,,,,3,,4,,3,,,,
6,,5,,6,,,,2,,1,,2,,,,
7,,1,,7,,1,,7,,1,,7,,,,
2,,8,,2,,8,,2,,8,,2,,,,
,,,,54,,54,,54,,54,,,,63,,
,,,,81,,81,,81,,81,,,,72,,
7h[4:1]/2,,,,1,,,,2h[4:1]/7,,,,8,,,,
6h[4:1]/3,,,,4,,,,3h[4:1]/6,,,,5,,,,
2,,1,,2,,1,,2,,1,,12,,,,
7,,8,,7,,8,,7,,8,,87,,,,
1,,8,,1,,8,,2,,7,,2,,7,,
3,,6,,3,,6,,4,,5,,4b/5b,,,,
,,,,5w1[4:1],,,,,,,,,,,,
,,,,4w8[4:1],,,,,,,,,,,,
3,,4,,3,,4,,3,,4,,3,,6h[4:1],,
,,5,,6,,5,,7h[4:1],,,,,,,,
2,,1,,2,,8,,2,,1,,2,,8,,
1,,7,,8,,7,,1,,7,,8,,7,,
1>8[4:2],,,,,,,,,,,,,,,,
18,,18,,72,,72,,63,,63,,4h[4:1]/5h[4:1],,,,
,,,,7b/2b,,,,,,,,
,,,,,,,,,,,,,,,,
,,,,,,,,,,,,,,,,
,,,,,,,,,,,,,,,,
,,,,,,,,,,,,,,,,
,,,,,,,,,,,,,,,,
,,,,,,,,,,,,,,,,
E
&inote_4=(155){16}
6,,,,6,,,,5,,,,5,,,,
4,,,,4,,,,3,,,,3,,3,,
2,,,,2,,,,1,,,,1,,,,
8,,,,8,,,,7,,,,7,,7,,
76,,,,65,,,,54,,,,43,,,,
32,,,,21,,,,18,,,,87,,,,
76,,,,65,,,,54,,63,,72,,81,,
1-5[8:2]/8-4[8:2],,,,,,,,,,,,2b/7b,,,,
3,,3,,34,,,,6,,6,,65,,,,
2,,2,,21,,,,7,,7,,78,,,,
3,,3,,32,,,,6,,6,,67,,,,
4,,4,,45,,,,63,,,72,,,81,,
7,,7,,75,,,,2,,2,,24,,,,
6,,6,,68,,,,3,,3,,31,,,,
7,,7,,76,,,,2,,2,,23,,,,
8,,8,,81,,81,,7-5[16:1]/2-4[16:1],,,,,,,,
78,,78,,61,,,,34,,34,,52,,,,
65,,65,,74,,,,12,,12,,83,,,,
76,,76,,85,,,,23,,23,,14,,,,
6,,5,6,,3,,4,3-6[8:1],,,,,,,,
8h[16:3],,,7h[16:3],,,6h[16:2],,1h[16:3],,,2h[16:3],,,3h[16:2],,
7h[16:3],,,6h[16:3],,,5h[16:2],,2h[16:2],,3h[16:2],,4h[16:2],,5h[16:2],,
4,5,4,5,4,5,4,5,4,5,4,5,4,5,4,5,
4qq8[8:3]*pp8[8:3],,,,,,,,,,,,27,,,,
8b-5[4:5]/1b-4[4:5],,,,,,,,,,,,,,,,
,,,,,,,,,,,,,,,,
5p6[4:5]/4^1[4:5],,,,,,,,,,,,,,,,
,,,,,,,,,,,,,,,,
6^8[1:1]/1^3[1:1],,,,,,,,,,,,,,,,
,,,,,,,,4^6[2:1],,,,,,,,
6^8[2:1],,,,,,,,8>4[1:1],,,,,,,,
,,,,,,,,,,,,,,,,
7-2[8:5]/6-3[8:5],,,,(150),,,,(140),,,,(130),,,,
(120)6-1[8:5]/5-2[8:5],,,,,,,,(110),,,,(100),,,,
(90)5-8[8:5]/4-1[8:5],,,,,,,,,,,,(73),,,,
(155)4bs8[8:5]/3bz7[8:5],,,,,,,,,,,,,,,,
2,,1,,83,,,,7,,8,,16,,,,
3,,4,,25,,,,6,,5,,74,,,,
2,,1,,74,,,,7,,8,,52,,,,
3,,4,,61,,,,6,,5,,83,,,,
2,,1,,3,,8,,2,,1,,4,,,,
7,,8,,6,,1,,7,,8,,5,,,,
1,,8,,2,,7,,3,,6,,4,,5,,
3-7[8:3],,,,6,,6-2[8:3],,,,,,,,,,
4w8[4:1],,,,,,,,,,,,,,1q6[4:1]/5q2[4:1],,
,,,,,,,,{12}8h[6:1],,7h[6:1],,6h[6:1],,
1h[6:1],,2h[6:1],,3h[6:1],,7h[6:1],,6h[6:1],,5h[6:1],,
2h[6:1],,3h[6:1],,4h[6:1],,5w1[8:1],,,,,,
{16}3>6[2:1]/4,,,,5,,,,4,,,,5,,,,
6^1[8:1]/4,,,,5,,,,45,,36,,27,,18,,
3/7^4[8:3],,,,2,,,,1,,,,8-4[8:1],,,,
7-3[8:1],,,,6-2[8:1],,,,5-1[8:1],,,,4qq1[4:3],,,,
47,,,7,,,6,,,6,,,5pp8[4:3],,,,
52,,,2,,,3,,,3,,,4,,,,
6/2^5[8:3],,,,7,,,,8,,,,1-5[8:1],,,,
2-6[8:1],,,,3-7[8:1],,,,4-8[8:1],,,,5pp8[4:3],,,,
54,,,3,,,2,,,1,,,4qq1[4:3],,,,
45,,,6,,,7,,,8,,,5w1[8:1],,5,,
,,,,3b,4,3,4,3,,25,,,,63,,
,,74,,6,5,6,5,6,,74,,63,,52,,
4-2[16:1]/1-3[16:1],,,,41,,,,8-6[16:1]/5-7[16:1],,,,85,,,,
4^2[16:1]/1^3[16:1],,,,41,,,,8^6[16:1]/5^7[16:1],,,,85,,,,
34,,4,,45,,5,,56,,6,5,6,,67,,
78,,8,,81,,1,,12,,2,1,2,,23,,
34,,25,,61,,87,,56,,47,,38,,12,,
45,,36,,27,,18,,2-5[16:1]/7-4[16:1],,36,,27,,,,
,,,,3b>6[4:1]/4bp5[4:1],,,,,,,,,,,,
,,,,6<3[4:1]/5q4[4:1],,,,,,,,,,,,
2,,7,5,7,,2,4,2,,7,5,7,,8/1h[8:5],,
,,7,,6,,5,,4-1[8:1]*-7[8:1],,,,,,,,
3,4,3,,6,5,6,,3,4,3,,6,5,6,,
2,4,3,,7,5,6,,2,4,3,,7,5,6,,
1w5[8:5],,,,,,,,,,,,,,,,
8,1,8,1,7,2,7,2,6<3[8:3],3,6,3,6,,,,
,,,,4b/5b,,,,,,,,
,,,,,,,,,,,,,,,,
,,,,,,,,,,,,,,,,
,,,,,,,,,,,,,,,,
,,,,,,,,,,,,,,,,
,,,,,,,,,,,,,,,,
,,,,,,,,,,,,,,,,
E
&inote_5=(155){16}
26,,,,37,,,,16,,,,83,,,,
25,,,,47,,,,36,,,,68,,71,,
82,,,,56,,,,71,,,,43,,,,
81,,,,45,,,,36,,1,8,1,,27,,
54,,4,,43,,3,,32,,2,,21,,1,,
18,,8,,87,,7,,76,,6,,65,,5,,
4,5,4,5,3,6,3,6,2,7,2,7,1,8,1,8,
1-5[8:3]*s5[8:3],,,,,,,,,,,,1b/8b,,,,
7-5[8:1]/2,,,,7/2-4[8:1],,,,2/6-8[8:1],,,,6/3-1[8:1],,,,
3/6-1[8:1],,,,6/2-5[8:1],,,,26,,,,18,,18,27,
3-7[8:1]/6,,,,3/6-2[8:1],,,,6/3-6[8:1],,,,3/6-3[8:1],,,,
36,,,,25,,36,,47,,,12,,,78,,
3/6-1[8:1],,,,6/3-8[8:1],,,,3/7-4[8:1],,,,7/2-5[8:1],,,,
2/6^3[8:1],,,,6/2^7[8:1],,,,62,,,,45,,36,,
2v5[8:1]/7-5[8:1],,,,2-4[8:1]/7v4[8:1],,,,2v5[8:1]/7-5[8:1],,,,2-4[8:1]/7v4[8:1],,,,
27,,,,15,,26,,3V16[8:1]/7V52[8:1],,,,,,,,
7,8,7,,61,,2,1,2,1,2,,83,,6,5,
6,5,6,,74,,3,4,3,4,3,,25,,7,8,
7,6,7,,15,,2,1,2,3,2,,84,,6,5,
74,,25,25,,83,,16,1-5[8:1]/6-2[8:1],,,,,,,,
34,,,23,,,12,,65,,,76,,,87,,
24,,,13,,,82,,57,,68,,71,,82,,
1,3,1,3,8,2,8,2,7,1,7,1,6,8,6,8,
5,,54,,5,3,1,4,6-2[16:1],8,4,2,6,,,,
2b>2[2:3]*z6[2:3],,,,,,,,,,,,,,,,
,,,,,,,,,,,,,,,,
8pp3[2:3]/4pp7[2:3],,,,,,,,,,,,,,,,
,,,,,,,,,,,,,,,,
8>5[1:1]/5p8[1:1],,,,,,,,,,,,,,,,
,,,,,,,,1-7[4:1]*-7[4:1],,,,,,,,
3-5[4:1]*-5[4:1],,,,,,,,2-6[1:1]*-6[1:1],,,,,,,,
,,,,,,,,,,,,,,,,
5-1[8:5]*-1[8:5],,,,(150),,,,(140),,,,(130),,,,
(120)4-8[8:5]*-7[8:5],,,,,,,,(110),,,,(100),,,,
(90)5-1[8:5]*w1[8:5],,,,,,,,,,,,(73),,,,
(155)2bV86[8:5]*V46[8:5],,,,,,,,,,,,,,,,
2>7[8:5]/7,,,,8,,,,1,,,,2,,,,
{48}8,,7,,,,,,1,,2,,,,,,7,,6,,,,,,2,,3,,,,,,6,,5,,,,,,3,,4,,,,,,
{16}7qq4[2:1]/2,,,,1,,,,2,,,,1,,3,4,
3qq8[8:5],,,,8,,,,7^4[8:1],,,,7,,,,
2,1,,7,8,,2,1,,7,8,,2,1,,,
6,5,,3,4,,6,5,,3,4,,6,5,,,
2,1,3,8,4,7,5,6,8,7,1,6,2,5,3,4,
2^7[4:1],,,,7pp2[8:3],,7h[2:1],,,,,,,,,,
5-8[2:1]*V38[2:1],,,,,,,,,,,,,,{24}4,3,2,
8,7,6,1,2,3,7,6,5,2,3,4,{12}8h[6:1],,7h[6:1],,6h[6:1],,
1h[6:1],,2h[6:1],,3h[6:1],,7h[6:1],,6h[6:1],,5h[6:1],,
2h[6:1],,3h[6:1],,4h[6:1],,5w1[8:1],,,,,,
{16}7pp2[2:1]/3pp6[2:1],,,,,,,,,,,,,,,,
5s1[8:1]/4z8[8:1],,,,,,,,1^4[8:1]/8^5[8:1],,,,,,,,
7,8,,1,8,,7,8,,1,8,,7,5,6,,
3,4,,5,4,,3,4,,5,4,,3,1,2,8,
3,4,,6,5,,3,4,,6,5,,3,8,1,,
7,8,,2,1,,7,8,,2,1,,7,4,5,2,
6,5,,7,8,,6,5,,7,8,,5,4,8,,
3,4,,2,1,,3,4,,2,1,,4,5,1,8,
2,4,,6,4,,2,4,,6,4,,2,8,1,,
7,5,,3,5,,7,5,,3,5,,8w4[8:1],4,5,1,
,,,,8b,8,8,8,8,,76,,,,32,,
,,54,,1,1,1,1,1,,84,,73,,62,,
5/1-3[16:1]*-5[16:1],,,,1,,,,4/8-6[16:1]*-4[16:1],,,,8,,,,
1/5-7[16:1]*-1[16:1],,,,5,,,,8/4-2[16:1]*-8[16:1],,,,4,,,,
15,,26,,37,,48,,15,,2,3,2,,15,,
48,,37,,26,,15,,48,,7,6,7,,48,,
15,,34,,12,,56,,48,,56,,78,,34,,
18,,36,,48,37,26,15,4qq1[8:3]/8qq5[8:3],,26,37,48,,,,
,,,,2b/7bV51[8:3],,,,8-4[8:1],,,,8,,,,
56,,,,7/2V48[8:3],,,,1-5[8:1],,,,1,,,,
3,4,2,1,4,5,1,8,5,6,8z4[8:1],7,4,5,8,,
,,14,,38,,27,16,5s1[8:1]/8z4[8:1],,,,,,,,
7,1,5,3,8,2,6,4,7,1,5,3,8,2,6,4,
7,8,4,3,8,1,5,4,1,2,6,5,8,1,5,4,
7z3[8:5],,7,,8,,8,,1,,1,,2,,2,,
4,3,2,1,8,7,6,5,{32}4,3,2,1,8,7,6,5,
{16}4V28[8:1]/8V64[8:1],,,,,,,,3b/7b,,,,,,,,
,,,,,,,,,,,,,,,,
,,,,,,,,,,,,,,,,
,,,,,,,,,,,,,,,,
,,,,,,,,,,,,,,,,
,,,,,,,,,,,,,,,,
,,,,,,,,,,,,,,,,
E
