&title=九皋
&artist=かたぎり
&first=0.012
&des=じゃーん☆
&lv_5=14+
&inote_5=(216){4},{1},,,{4},,,{32}8b/1b,
7/2,6/3h[16:15],5,{8}4<2[32:85],,,,,,,,,,,,,,,{1}4xh[1:2],
,3q5[4:5],
1h[1:1],
8z4[1:1],
{4}3h[4:3],{8},,,,4,5,
{2}6V82[2:1],2V47[2:1],
{8},,,3,5,4,6,2,
{2}7V53[2:1],3V16[2:1],
{1}4xh[1:1],
{2}5V31[2:1],1V74[2:1],
{8},,,2,5,3,6,4,
7V13[2:1],,,3,{2}3V58[2:1],
{4}2xh[4:3],{8},,,,8,2,
{4}7/3,7/3-8[8:1],{2}3/7V51[2:1],
{8}B2/E3,,,2,7,3,6-1[8:1],4,
6,,,8h[8:3]/4-2<1-5[8:7],,,,,{4}E7/B6,
{8},,,,6,7,
1h[4:3],,,5-7>8-4[8:7],,,,,2,
,,3h[8:3],,,,,7,
3,6,4h[4:1],,,8,4,
7,5h[4:1],,6,{2}6-1[8:1]*-2[8:1],
{4}8xh[8:1]/3xV51[8:5],8h[8:1],7h[8:1],7h[8:1],
{8}6,1,5,2,{4}4-1[8:1]*-8[8:1],4,
2h[8:1]/7V51[8:5],2h[8:1],3h[8:1],3h[8:1],
{16}8/4,,,7/5,,,{8}6,{2}4-7[8:1]*-8[8:1],
{8}1x,1,7,7,3<6[8:1],3,{4}3h[4:1],
{8}7,7,1,1,8w4[8:1],8,,,7x,
7,3,3,{16}5,6,7,8,E4,B3,B2,E2,
{2}1x/8x>6[16:5],{4}1v4b[8:1]*v6b[8:1],Cf,
{8}3x/5xh[4:1],{16},,,,3x,2x,{8}1x,{16}5x,6x,{8}7x,2V46b[4:1],
2,8b,8b,8h[4:1],{16}A6,B6,C,B2,A2,8x,7x,6x,
{4}3x/5xh[4:1],4q8b[8:1],3v1[8:1],7xh[8:1],
{16}A7,B7,C,B3,{8}A3,4/2x>5[8:1],,1-4[8:1],,1,
{4}6h[4:1],{16}4x,3x,{8}2x,{16}8x,7x,{8}6x,{16}1x,2x,{8}3x<6b[8:1],
8,8h[8:3],{16}A6,B6,C,B2,{4}A2,{8}5/1>4[8:1],2,
{4}6,{8}7v5[8:1],7,4xp8[8:1],4,{4}4<8b[8:3],
{16}1h[8:1],,,2h[8:1],,,{8}3,7,5,5-8[8:1],3,
{4}2bv4[8:1],{8}1p5[8:1],1,3v8[8:1],3,{4}6h[4:1],
1q5[8:1],1/6v8[8:1],{12}A4,A3,A2,7b/A1,,,{4}7v4[8:1],
{8}8>3[8:1],8,{12}A5,A6,A7,4b/A8,{48},,,,,,,,{16}3x,
7x,3x,7x,{8}3x,2/6,7/8,5b/4b,{4}5b/4bV28[4:1],
7bh[8:3],{16}A8,B8,C,B4,{4}A4/6v8[8:1],{8}5p1[8:1],5,
7v4[8:1],7,2,2,{16}3/5,,,7h[8:1]/1bh[8:1],,,{8}7bh[8:1]/1h[8:1],
{16},7h[8:1]/1bh[8:1],,,6h[8:1]/2bh[8:1],,,6bh[8:1]/2h[8:1],,,{8}5h[8:1]/4bh[8:1],{16},5bh[8:1]/4h[8:1],,,5h[8:1]/4bh[8:1],
,,6b/3,,,8x,7x,{8}6xh[4:1],2,3h[4:1],5,
4<7[8:1],2,1,8h[8:1],,,5/2>5[8:1],6,
7,8,{16},,4,5,{8}2h[4:1],6,7h[4:1],4,
3>8[8:1],6,5,4h[8:1],,,4/7<4[8:1],3,
2,1,{16},,5,3,{8}4h[4:1],2,1h[4:1],6,
5-8[8:1],2,3,4h[8:1],,,6/2-5[8:1],7,
8,1,{16},,3,5,{8}4h[4:1],7,6h[4:1],3,
5-2[8:1],7,8,1h[8:1],,,3/7-4[8:1],2,
1,8,{16},,5,6,{8}7h[4:1],{16}1,2,{8}3h[4:1],5,
4-7[8:1],2,1,8h[8:1],,,5/1-4[8:1],6,
7,8,{16},,6,4,{4}7-4[8:1]/3v8[8:1],3/7>4[1:1],
{2}5xh[4:1],6h[4:1],
{8}7h[4:1],5xh,5xh,{16}4,5,{8}2h[4:1],7,6bh[4:1],3,
4,7,8,1-6[8:1]/5v2[8:1],,5/1,{16},,3,7,
{8}3,2h[8:1],8,8h[8:1],6,5,4/7,3,
8/2>5[16:3],2,1,1h[16:5],{16}6,7,{8}8,{16}2,3,4,5,
{1}8z4b[2:1]`6V42[2:1],
{4}5h[16:3]/1h[16:3],{8}6,7h[16:3]/3h[16:3],,8<5[8:1],{4}6/4,
4bh[16:3],{8}3,2h[16:3]/6h[16:3],,1>4[8:1],{4}5/3,
6bh[16:3],{16}5h,3h,{8}5h,{4}6xh[16:3]/4xh[16:3],{16}7h,5h,{8}7h,
{4}6xh[16:3]/8xh[16:3],{16}5h,7h,{8}5h,4xh[16:3]/6V82[4:1],{16},,,,3,4,
{4}5bh[16:3],{8}1,8h[16:3]/4h[16:3],,7<4[8:1],{4}3/5,
1bh[16:3],{8}5,6h[16:3]/2h[16:3],,3>8[8:1],{4}7/1,
5bh[16:3],{16}8xh[16:3]/7<4[16:1],,,7,,,,,4xh[16:3]/3>8[16:1],,,3,
,,,,7x<4[16:1]/8x>3[16:1],,,7/8,,,,,4x/3xh[4:1],5,6,7,
{4}8qq4[0.2778##1.8056],2h[16:3],{8},1h[16:3],{16},,,,3,
,,,{4}2h[16:3],{8},3h[16:3],,,{4}6/5,
7h[8:1]/4h[8:1],{16}2,1,{8}2,8/3,8/3,
{16}E8,B7,B6,E6,E4,B3,B2,E2,{4}5x/1x,{16}4,5,6,7,
{4}8/1pp5[0.2778##1.8056],7h[16:3],{8},8h[16:3],{16},,,,6,
,,,{4}7h[16:3],{8},6h[16:3],,,2xh[16:3]/4xh[16:3],
,,5/3,5xh[16:3]/3xh[16:3],,,6/4,
7x/3x,{16}2,8,{8}2,7/1,{4}1>4[8:1]/7<4[8:1],7xp3p7b[2:7]/1xq5q1b[2:7],
,,,,,,,,,,,,,,,C,
{8}7/5,7,4/6,4,3/5,5,2/4,2,
{16}1,8,2,7,3,6,4,5,3,6,2,7,{32}1x,2x,3x,4x,5x,6x,7x,8x,
{1}Ch[8:5]/1xV73b[0.7407##0.9259]*-4-6[0.7407##0.9259],
,(81){64}2V48[8:1],
1/3,8/4,7/5,{16}6,{8}8-6-2[8:1],2-5-3[8:1],7,{16},7,{32},,,,8>3[32:3]*<5b[32:3],,,5h[32:3]/3<5[16:1],,,,,{4}8qq1[4:1],
{8}8/1p8[4:1],2,{64},,,,,,,,,,,,,2,,,,2-4-6b[8:1],,,,,,,,6-3b[16:1],,,,,,,{4}2/7-1-6-2[4:1],
{8}7/2-5-3[8:1],3x-8[16:1],{16},1,{32},,,,7,,,8x,,8/4z8[32:3],,,{4}6/2,
{16}6,7/1,{32}7/1,,,5h[16:1]/3h[16:1],,,{16}6h[16:1]/4h[16:1],{32},5/3,{128},,,,,,,,7v8[16:1]/2v1[16:1],E7/E3,B6/B3,B5/B4,{32}E5,,,,,,,,,,,{16}1xv7[16:1],
{32}6,6,{16}4h[16:1],8,1v3[16:1],{32}4,4,{16}6h[16:1],2,1-5[16:1],{32}6,6,{16}4h[16:1],8,1v4[16:1],{32}3,3,
{16}7h[16:1],2,1v6[16:1],{32}5,5,{16}3h[16:1],7,1>5[16:1],{32}4,4,{16}7h[16:1],2,1V75[8:1]*V38[8:1],{32}6,6,{16}4h[16:1],8,{8}1,
,C/5xv3[16:1],{16}6h[16:1],4,5v7[16:1],{32}8,8,{16}2h[16:1],6,5-1[16:1],{32}2,2,{16}8h[16:1],4,5v8[16:1],{32}7,7,
{16}3h[16:1],6,5v2[16:1],{32}1,1,{16}7h[16:1],3,5,8,8/3,5/2,{24}1/8,4,6,3,5,2,4x/3x,6x/5x,1x/8x,
(216){8}2b/6b,2>5[8:1],{24},,,6,7,8,{16}1-6[8:1],,,4,{8}1,2,
7-4[8:1],7,1-5[8:1],1,8,8h[32:7],{32}3x,2,{16}1,{32}7,6,5,4,
{8}3b/7b,7<4[8:1],{24},,,3,2,1,{16}8-3[8:1],,,5,{8}8,7,
4-1[8:1],4,8V62b[4:1],8,{16}2b-5b[8:1],,,4b,,,{8}1b,
6b,6<1[8:1],{24},,,2,3,4,{16}5-2[8:1],,,8,{8}5,6,
3-8[8:1],3,5-1[8:1],5,4,4h[32:7],{32}7x,6,{16}5,{32}3,2,1,8,
{8}7b/3b,3>8[8:1],{24},,,7,6,5,{16}4-7[8:1],,,1,{8}4,3,
{4}3h[8:1]/8-5[8:1],4V26b[4:1],{16}6b-1b[8:1],,,8b,,,{8}5b,
{2}2xh[4:1]/4xV68-3[4:5],1h[4:1],
{4}2,3-5-7[0.2778##0.5556],{2}2xh[4:1],
1-5-2-4b[4:5],7,
8h[4:1],{8}7,6,2,3,
4b/3b,3/4<7[8:1],{24},,,8,1,2,{16}3-8[8:1],,,6,{8}3,4,
5/1-5[8:1],2,1/6-1[8:1],7,4,4h[4:1],{32}8x,7,6,5,,3,2,1,
{8}8b/4b,4>1[8:1],{24},,,8,7,6,{16}5-1[8:1],,,2,{8}5,4,
{16}4bh[8:1]/8h[8:1],,,7bh[8:1]/5h[8:1],,,{8}8h[8:1]/3bh[8:1],{16},5bh[8:1]/2h[8:1],,,{8}8b/7b,1b/6b,
{4}2b>6[16:5]/5b>1[16:5],,,8xh[8:1]/2xh[8:1],
{24}A7,B7,C,B3,{12}A3,1xs5[4:1],,,,,,{4}1b,
8xh[8:1]/3xV51[8:5],8h[8:1],7h[8:1],7h[8:1],
{8}6,1,5,2,{4}4-1[8:1]*-8[8:1],4,
2h[8:1]/7V51[8:5],2h[8:1],3h[8:1],3h[8:1],
{16}8/4,,,7/5,,,{8}6,{2}4-7[8:1]*-8[8:1],
{8}1x/6,1,7/2,7,5/3<6[8:1],3,{4}3h[4:1],
{8}7,7,1/8,1,2/8-5[8:1]*-4[8:1],8,,,6x/3,
3,2/7,7,{16}8,2,8,2,{4}8>1>2>3<4<5[6:1]*>1>2>3<4[8:1]*>1>2>3[12:1]*>1>2[24:1],
8x,{24}8x,1,2,3,4,5,8x-4[8:1],1,2,3,4,5,{4}6b/8b,
4xh[16:3]/8xh[16:3],{8}B7/E8,8xh[16:3]/4xh[16:3],,E7/B7,{4}8xh[16:3]/4xh[16:3],
6h[16:3]/2h[16:3],{8}E8/B7/E3/B3,{24}E7,{48}E6,Ch[16:3],{24}B5,{8}E5,,,5/1,
{4}5xh[16:3]/1xh[16:3],{8}E2/B2,5xh[16:3]/1xh[16:3],,E3/B3,{4}5xh[8:1]/1xh[8:1],
{16}4bh[8:1]/2bh[8:1],,,4bh[8:1]/2bh[8:1],,,{8}E3/B2/B3/B6/B7/E7/Ch[64:1],{24},,,,,,E1,E8/E2,E7/E3/C,E6/E4,{12}E5,
{4}5xh[16:3]/4xh[16:3],{8}E3/B3,4xh[16:3]/5xh[16:3],,E7/B6,{4}5xh[16:3]/4xh[16:3],
B6/E7/E3/B3,8xh[8:1]/1xh[8:1],{32}E8,E7,E6,E2,E3,E4,,,{4}5xh[8:1]/4xh[8:1],
7h[16:3]/3h[16:3],{8}B2/E3,7h[16:3]/3h[16:3],,B1/E2,{4}7h[16:3]/3h[16:3],
{16}6bh[8:1]/4bh[8:1],,,6bh[8:1]/4bh[8:1],,,{8}3/5h[8:3],{24}A2,D3,A3,D4,A4,D5,D6,A6,D7,A7,D8,A8,
{16}5h[4:1]/1xh[4:1],,,,,6,,,{8}2/8<5[8:1],3,{4}8x/4x,
{16}4bh[4:1],,,,,3/5,,,{8}6/1>4[8:1],7,{4}8x/1x,
6bh[16:3]/5h[16:3],{8}4>1[8:1],8h[16:3],{4}4x,{8}7,1/6-1[8:1],
2h[8:3],6x,,8x,{16}3h[8:1]/8h[8:1],,,8h[8:1]/3h[8:1],,,{8}2/6,
{16}1xh[4:1]/5xh[4:1],,,,,2,,,{8}6/4>1[8:1],7,{4}4x/8x,
{16}8bh[4:1],,,,,7/1,,,{8}2/5<8[8:1],3,{4}4x/5x,
2/1,{8}3/7,{16}6,4-1[8:1],5h[16:3],,,4x,,,{8}7,
,2xh[8:1]/6xh[8:1],{16},2xh[8:1]/6xh[8:1],,,{8}8x/1xh[4:1],{24}7,6,5,{4}4b-8[8:1],
2b/4b,{8}3x/7x,{16}2,1,{8}2,7x/3x,{16}6,5,{8}6,
3x/7x,{16}2,8,{8}1,3x/7x,{16}6,4,{8}5,{4}6bx/2b,
{8}3-8[8:1],4,3,6-1[8:1],5,6,3xh[4:1],8x,
8x,7/2,7/2,{16}3x,4x,6xh[8:1]/5xh[8:1],,,6xh[8:1]/5xh[8:1],,,{8}7x/4x,
{4}8-5[8:1],8b/3b,{8}6x/2x,{16}7,8,{8}7,2x/6x,
{16}3,4,{8}3,6x/2x,{16}7,1,{8}8,6x/2x,{16}3,5,4,(150),
(216){8}3/7,7,6/2,6,1/5,1,8/4,8,
{16}1,2,3,4,5,6,7,8,1/5,4,3,2,1-5b[8:1],8,7,6,
{64}5/1bV35V71[8:55],B1/B5,{32}Cf,{1},,{4},,{16},,,{4}C,
{8},,,,E2/B2,{16},,,,E3,B3,
{4}B4,,,B5/E5,
{16},,,,,,,,,,,,A4,D4,A3,D3,
{4}A2,,,2,
{8}4h[8:3],,,7h[8:5],,5,4,3,
{2}2V46[2:1],6V83[2:1],
{4}5h[4:3],{8},,,,1,6,
{4}3V17-4-2[8:9],{8},,,,5,5h[4:3],
,,,,,2,4,3,
{1}5-3-1-6-4[4:5],
{8}3,,,2,,,{4}5/1h[4:1],
4V28-5-3[8:9],{8},,,,2,2h[4:3],
,,,,,3,4,5,
{4}2/6,2/6-1[8:1],{2}6/2V47-1-5[8:9],
{4}B7/E7,{8},,,,7,8,
{4}1V36V84[8:9],{8},,,,2,2h[4:3],
,,,,,5,4,2,
6h[8:5],,,,,4,7,3,
5h[8:5],,,,,4,3-7[8:1],2,
{1}1s5b[8:7],
{16},,,,,,6,4,{8}7,5/2,,,8/1-3-7-4-6[1:1],
1/8h[8:9],{1},{4},{16}8,
5,{8}7,{4}6/4,
{8}2/5-3-6-1-7b[1:1],5/2h[8:9],{1},{4},{16}1,
7,{8}2,{4}3/6,
{8}4v1[8:3]/5-8[8:3],4/5,,,,,,,1<4[2:1]/7>4[2:1],
7/1,,,,,,,2/1-6[8:1],
2/1,,,7/8-3[8:1],7/8,,,7/4,
5/2-7[8:1],,2/8z4[4:1],,8x/5h[8:3],,,{4}3xV16[2:1],
4h[8:1],3h[8:1],2h[8:1],
{8}6,2,5,1,4,8,{4}3-7[8:1],
1V36[2:1],8h[8:1],7h[8:1],5h[8:1],
{16}4/7,,,1/5,,,{8}7/4,{16}E4,B3,B2,E2,{4}5b/1bx,
{8}4-6[8:1],4,1-3[8:1],1,7-4[8:1],7,{4}4b,
{8}3-1[8:1],3,4-6[8:1],4,8-3[8:1],8,{4}7b,
{16}7,4,7,4,7,3,7,3,6b,2,6,2,5,1,5,1,
{4}4x<8[16:3],4/3h[4:1],{24}1x,2,3,4,5,6,{4}7x/3x,
{8}6b/2b,{16}5,3,{8}4>1[8:1],6,{4}4/7-4[8:1],{8}7,1,
5/1-3[8:1],4-6[8:1],1,4,2,4/3,4/5,5/6,
8b/3b,{16}4,6,{8}5-7[8:1],8/2,5/4-1[8:1],3,8-4[8:1],7,
{4}8/2-5[8:1],2/7-4[8:1],7/1-5[8:1],1/8,
{8}4b/7b,{16}8,2,{8}1-4[8:1],3/7,5-7[8:1],6,3,4,
5/8,{16}4,7,3,6,2,5,4h[8:1]/1h[8:1],,,3h[8:1]/2h[8:1],,,{8}6/5,
4b/7b,{16}3,1,{8}2-5[8:1],3/8,{4}6-1[8:1],6/4,
{8}8/2,4/5h[8:3],{16},,6x,7,8,1,2,3,{24}4b/7,5,6,7,8,1,
{8}6b/2b,{16}3,5,{8}4>1[8:1],6/2,{4}7-4[8:1],{8}7,1,
5/1-3[8:1],4-6[8:1],1,4,2,7/3,5/4>1[8:1],2/8,
{4}7bh[4:1],8>3[8:1],6h[4:1],4-1[8:1],
{16}8h[8:1],,,7h[8:1],,,{8}6,{4}2/5-1[8:1],4,
{8}8b/3b,{16}4,6,{8}5-8[8:1],7/3,1-3[8:1],2,7,8,
1/4,{16}8,3,7,2,6,1,8h[8:1]/5h[8:1],,,4h[8:1]/3h[8:1],,,{8}2/1,
8/1,8/7,7/6,6/5,{16}4/5,3,2,1,4,5,6,7,
{24}1b,2,3,4,5,6,7,8,1,2,3,4,8b,7,6,5,4,3,2,1,8,7,6,5,
{128}4b/A2f,B2f,Cf,B6f,{32}A6f,,,,,,,,,,,,,,,{16}8x,5x,1,6,2,7,{8}3,
8/4,{16}7,5,{8}6v1[8:1],7/4,2-5[8:1],3,8,7,
6b/4b,{16}7,2,8,3,1,4,{8}2-6[8:1],2,4V28[8:1],4,
{24}8bx,7,6,5x-1[8:1],{48},,,,,,,,,,{16}2,3,{4}4w8[8:1],4b,
{32}A7f/A1f,D7f/A6f/D2f/A2f,D6f/D3f,A5f/A3f/D5f/D4f,{8}A4f,,,4x/8<5[8:1],3,8/2,1,
4/8-3[8:1],8,5,5-8[8:1],{16},,2b,3b,{4}4b,
{16}1v3[16:3],8,7,6,{4}5/1b,{16}8v3b[8:1],7,6,5,{4}4/8x,
{8}5x/2x,8x/3x,,6x/2x,7x/4x,5x/1xh[32:7],{32}4x,3,{16}2,{32}8,7,6,5,
{4}1b/4b-7b[8:1],4b/1b-5b[8:1],1b/8b-4b[8:1],8b/2b-5b[8:1],
2b/6b-1b[8:1],6b/3b-8b[8:1],3b/5b-1b[8:1],{8}2b-7b[8:1],3bx,
{4}4b-8b[8:1],4b/6b-1b[8:1],6b/2b-5b[8:1],2b/7b-4b[8:1],
7b/3b-6b[8:1],3b/8b,{8}5b/7b,{16}8,4,7,3,6,2,
{4}1h[4:1]/5-8[8:1],5,{16}2,8,{8}1,7/3,4/8,
{16}5v7[8:1],4,3,2,{4}5/1h[8:1],{16}4v7b[8:1],3,2,1,{4}4/8h[8:1],
{8}6/1,2,7/3,6,5/2,{16}3,4,{8}2,1/5,
{24}6x/3,7x,8x,1x,,,{8}1/4,{16}3x,1x,3x,1x,{8}3x,2/8v5b[8:1],7/1,
{1}6b-2-4>3b[4:5],
{4}1,1,1,1,
7h[8:1]/2V48[8:5],7h[8:1],6h[8:1],6h[8:1],
{16}1/5,,,2/4,,,{8}3,{2}5-2[8:1]*-1[8:1],
{8}8x/3,7,2/7,3,4/6>3[8:1],6,{4}6h[4:1],
{8}2,2,8/1,7,6/1-4[8:1]*-5[8:1],1,,,3x/6,
7,8/4,3,{16}2b,1,2,1,2,1,2,1,
{4}8x/2x-5[8:1],2/7-3[8:1],7/1<6[8:1]*>4[8:1],1b-5[8:1],
1b,{8}7/4,{16}6,5,{8}8,1/4,{4}3b/2-6[8:1],
5,7xh[8:1]/4xh[8:1],{16}2,3,6,5,1,2,7,6,
{12}4b,4,4,4-8[16:3],4,4,{16}4x,,,5h[8:1],,,{8}6/1,
{16}2h,7h,3h,6h,{4}4x-2-5[4:1],{8}5-1[8:1],6,{4}7,
8b/2b,{8}4/3,{16}2,8,{8}1x,6x/4x-2[8:1],{16},,,8xh,
7xh,6,3x,4,8/5,7,2,3,{4}1b/4bv2[8:1],8bv6b[8:1],
3xh[8:1],{16}2,3,6,5,2,3,{8}4b/7b,{16},6b/2b,,,{8}3b/8b,
{32}6,,,6,,,{16}4,{32},5,,,{8}2x/3x-7[8:1],1,{4}1b,
{24}6b/8v5[8:1],1,2,3,,,,,,,,,{8}4/2,4/2,4/2,{16}3x,5x,
{8}3x,6/4,6/4p8[8:1],4,7p3[8:1],7,1-5[8:1],1,
{4}4bh[4:1],{12}6h,5,8h,7,3h,2,5h,6,8h,
4b,2h,6b,4h,8b,2bh,{2}6bw2[12:1],
{16}2x,1x,2,1,{8}8/3,6/4,{16}7,8,7,8,{8}6/1,3/5,
2b/7b,4b/5b,6b/1b,{16}8,7,{8}1,{24}2b,3,4,{8}5x,{24}8b,7,6,
{8}5x,{16}2h,6,4h,5,2h,7,{24}4,8,4,8,4,8,5b,6,7,8,1,2,
7b/3b,6,5,4,3,2,1b/4bh,8,7,6,5,4,3b/7bh,2,1,8,7,6,5b/2bh,4,3,2,1,{648}8,{64},,{864},,,,,{648}7bp2>4<6p1[4:29],,,,{324}5bp8p3b[8:59],
{1},,,,,,,{4},,,{16},,,{64},,,{5184},,,,,,,,,,,,,,,,,,,,,,,,,,,,,,,,,,,,,,,,,,,,,,,,,{8}6-3[4:15],
5,4,3,
E
