&title=IMPACT
&artist=USAO feat. 光吉猛修
&first=0
&des=DANNIS
&clock_count=4
&lv_5=14+
&inote_5=(210)
{1},
{4}3bxh[8:6]/6bxh[8:6],,,,
{8}18,7,18,2,4-8[8:1]/5-1[8:1],,4bx/5bx/D5f,,
{16}2x/7x,27,,1x/8x,
{8}1bx-6[8:1]/8bx,,1>4[8:1]/2,,1-6[8:1]/8,,1>4[8:1]/2,,1-6[8:1]/8,,1>4[8:1]/2,,
{8}8/1x,8,
{8}8x<5[8:1],,8-3[8:1]/1,,8<5[8:1]/7,,8-3[8:1]/1,,8<5[8:1]/7,,8-3[8:1]/1,,
{8}8/7,7,6,6,5/4,3,12,,45,6,78,,34,2,17,6,45,3,{16}21,8,7,6,
{8}45,36,27,18,{16}8x/1x,2,3,4,7x,6,5,4,
{8}8h[8:2],5,,1h[8:1],4w8[8:1],,,,
{8}2b/6b,7-2[8:1],,7/3-6[8:1],,7-2[8:1]/3,,7/3-6[8:1],,1,1>4[8:1]*-6[8:1],,1,,,8,
{8}8-3[8:1],4-7[8:1],8,4,,1-6[8:1],,1/5-2[8:1],,85,8V64[8:1]*v3[8:1],,8,,2x,2x,
{8}1h[8:1]/3h[8:1],,5h[8:1]/7h[8:1],,2h[8:1]/3h[8:1],,6h[8:1]/8h[8:1],,
{8}2h[8:1]/4h[8:1],,8,{16}17,26,{8}3h[8:1]/5h[8:1],,6h[8:1]/4h[8:1],,
{8}1bq3[8:3],,7,,5,5,{16}5,6,7,8,
{8}1-3[8:1],,8-4[8:1],,7-5[8:1],,1h[4:1],,A4f/E5/E4,,
{8}28,,1-5[8:1],8,17,,8-4[8:1],1,8/2>5[8:1],,1-5[8:1]/2,,1/2-6[8:1],3,1-5[8:1]/2,8,
{8}1/2<7[8:1],,4,,1,5,5x/4x-1[8:1],4x/5x,5x-8[8:1]/4x,,5x-1[8:1]/4x>1[8:1],,
{8}4b/5b,,
{8}7x/8-4[8:1],1x,2/8x,,2x/1-5[8:1],8x
,7/1x,,
{8}7-4[8:1],8,7,2-5[8:1],1,2,8,,
{8}37,37,26,26,15,15,{32}15,8,7,6,5,4,3,2,{4}1-3[8:1]/8-6[8:1],,2-4[8:1]/7-5[8:1],,
{8}1bp4[8:1],,4>1[8:1],,1-5[8:1],,5<8[8:1],,
{8}8q5[8:1],,5<8[8:1],,8-4[8:1],,5,,
{8}56,45,3/4-8[8:1],,4/5h[4:1],,7,8,1,1-4[8:1],,5,5-7[8:1]*-3[8:1],,,,
{8}5x-1[8:1],,3x/5,,4-2[8:1],4,6x,6,5-7[8:1],,3x/5,,4-8[8:1],4,6x,6,
{8}5-1[8:1],,3x/5,,4-2[8:1],4,7x,7,1x/8,,2/7x,,B4/B5/E4/E6,,,,
{8}8xh[8:1]/4,,8xh[8:1]/5,,8xh[8:1]/6,,8xh[8:1]/7,,
{8}1xh[8:1]/7,,1xh[8:1]/6,,1xh[8:1]/5,,1xh[8:1]/4,,
{8}1x/3,24,35,46,58,47,36,25,{32}1,2,3,4,5,6,7,8,1,2,3,4,5,6,7,8,
{8}1b/Cf,,2x,2x,1x/3-6b[8:1],,2-7b[8:1],2,3-6b[8:1],,2-7b[8:1],,3-6b[8:1],,1,,
{8}8b/5b,7b/6b,8b/5b,7b/6b,
{8}8-3b[8:1],,4-7b[8:1],4,8-3b[8:1],,4-7b[8:1],,8-3b[8:1],,4-7b[8:1],,
{8}5b-2b[8:1]/4b,,5b/4b,,
{8}8h[8:1]/1h[8:1],,27,36,4>2b[8:1]*-1b[8:1]/5,,4bq8b[8:1]*<7b[8:1],,4b,,2,,
{8}3b/8b,1b/2b,3b/8b,1b/2b,8>3[8:1],,7,6<1[8:1],,5,4-8[8:5],,
{8}2h[4:1],,,,6h[2:1],,,,
{8}Ch[1:1],,5,5,6,7,8-3[8:1],,8,,2,2,1,8,7,,3,3,5,5,4,4,6,6,
{16}3,7,3,7,2,8,2,8,{8}1-5[8:1],,A1f,,
{4}6b<3[4:7],,,,,,,,6<3[4:7],,B6,,,B3,,,6<3[4:7],,C,,,E1,,,
{8}5h[8:8],,,,4h[4:2],,,,,,1xs5b[8:1]`8xz4[8:1],,{24}1x/8x/D1f,Cf,E5f,,,,,,,,,,
{8}7bh[8:16],,5,,,6,C,,4,,5,,,4,C,,2h[8:14],,4,,,5,C,,4,,3,,,4,8x,,
{8}46,,B6/C/B2,,3,5,B7/C/B3,,46,,B6/C/B2,,3,5,B7/C/B3,,
{8}5-8[4:1],,,,4-1[4:1],,8x<1b[4:1],,8xb,,,,5-8[8:1]/4-1[8:1],,{24},,,,,,
{8}7b/2b<2[8:8],,,,,,8x,,6,5,4h[4:1],,1-4[8:1],,1b/8b-5[8:1],,
{8}8b/7b>7[8:8],,,,,,1x,,3,4,5h[4:1],,8h[4:1],,{16}1x,8x,1x,8x,
{8}1b<2[8:6],,,,,,7x,,E1,,C,,E5,,2-6[8:1]/7-3[8:1],,
{8}2b-6V84[2:1]/7b-3V15[2:1],,,,,,,,
{8}3b/B8f,,2b/B7f,,1b/B6f,,{16}2bxh`7xb,,,,
{24}1x/8x,2x/7x,3x/6x,4xh[24:15]/5xh[24:15],,,{4},,
{24},3x/6x,2x/7x,1xh[24:3]/8xh[24:15],,,{4},2,3,4,
{24}5x/6x,4x/7x,3x/8x,2xh[24:15]/1xh[24:15],,,{4},,
{24},3x/8x,4x/7x,5xh[24:15]/6xh[24:3],,,{4},7,8,{16}8,1,8,1,
{8}2xh[8:5]/7xh[8:5],,,,,{24},3x/6x,4x/5x,{8},,,,36,,27,,18,3,
{8}2x/B6,1,8x,7,6xp3[4:1]/B3,,,,
{8}Ch[8:6],,5x,,6x,,7x,,
{8}8q1[8:12],,4,4,5,,5,,2,,2,,4,,4,4,
{8}73,3,15,5,62,2,84,8,
{16}8x,1,8,1,8,1,8,1,{32}8,1,2,3,4,5,6,7,
{4}8z4[8:1]/1s5[8:1],,,,,
{16}36,,1,2,3,,5,,7,6,5,,2b/7b,,,,
{8}84,{16}7,5,6-1[8:1],5,7,,{8}6/4-8[8:1],3,4/7-3[8:1],6,
{8}7/2-6[8:1],1,2/4-7[8:1],5,4/1-5[8:1],8,1/5,6,
{8}37,{16}2,4,3-8[8:1],4,2,,{8}3/5-1[8:1],6,5/2-6[8:1],3,
{8}2/7-3[8:1],8,7/5,4,{16}2,4,,7,5,,12,,
{16}8x/4-8[8:1],7,6,5,4/2b,,,,7x/3-7[8:1],6,5,4,3/1b,,,,
{16}8x/4-8[8:1],7,6,5,4/1b,,,,7x/3-7[8:1],6,5,4,3/8b,,,,
{8}6h[8:1]/2,3,4>5[4:1]/6,7,4/8h[4:1],,,,52,6,8p1[4:1]/7<2[4:1],1,,,,,
{8}84,6,5/2-5b[8:1],3,{24}5-1b[8:1]/2,6x,7x,8x,,,1,8x,7x,6x,,,
{8}48,15,6/2w6[8:1],,2b,,48,{16}7,6,
{8}15,3,4/7-4b[8:1],6,{24}4-8b[8:1]/7,3x,2x,1x,,,8,1x,2x,3x,,,
{8}51,84,3/7w3[8:1],,7b,,51,{16}26,,
{16}3xb,7xb,3xb,7xb,{8}3xbh[4:1],,{16}1,8,7,6,8,1,2,3,
{8}4-1[8:1]/8-5[8:1],15,,,2-7[8:1]/6-3[8:1],73,,,
{8}5b/6b,,{16}2b/1b,,4b,5b,4b-1[8:1],,,,{32}4x/5x,E6,B6,B7,E8,,,,
{4}8xpp4[4:1]*qq4[4:1],,{16},,6xbh`2bx,,{8}8bx<2[4:1],,
{8}28,,8b>6[4:1],,68,,8b<2[4:1],,28,,8b>6[4:1],,68,,1,1,
{8}4>6[4:1],,4b/6b,,4<2[4:1],,2b/4b,,5>8[4:1],,5b/7b,,{16}5,7,,2,4,,7,,
{16}2,1,2,1,2,3,4,5,8,1,2,3,7,8,1,2,
{16}4,3,4,3,4,5,6,7,8,7,8,7,8,1,2,3,
{8}8-5[8:1]/4z8[8:1],,,,4<5-7[8:1]*>3-1[8:1],,,,8V26[8:1]*-5[8:1],,,,
{32}E4,E3,E2,E1,E8,E7,E6,E5,E4`8x,,,,,,,,
{16}2-6[8:1],1,2,3,{8}2,,8,7-3[8:1]/5,,5-1[8:1],4,7,6<1[8:1],5,
{24}2,3,4,5,,,{8},37,2-6[8:1],1-5[8:1],2,1>4[8:1],,
{8}1/6<1[8:1],7,2,2,3,4>1[8:1]/7,,{24}8v2[24:2]*v5[24:2],7,6,5,,,{8},,
{8}16,{16}7,8,7,,6,,5h[8:1],,{32}1,2x,3x,,{16}5h[8:1],,{32}1,8x,7x,,
{8}4,5,6/8<5[8:1],,{24}8,1,2,3,,,{8}6x/4x,5x/3x,1b/4b,,
{8}3/5,4/6,8b/5b,{16}3b,4b,3b,,6b,5b,{8}6b-2[8:1],,4s8b[8:1]*z8b[8:1],,
{8}A4f,,2x-7[8:1]/6x-3[8:1],,2x-5[8:1]/6x-1[8:1],,
{8}2xb/6xb,,37,2,18,{32}8xh[8:1]/7x,6,5,4,,,,,1,,,,1xh[8:1]/2x,3,4,5,,,,,
{8}3h[8:1]/7h[8:1],,,62,7-3[8:1],{32}8x-4[8:1],1x,2x,3x,{8}7,8,,
{32}3xh[8:1]/5x,6,7,8,,,,,6xh[8:1]/4x,3,2,1,,,,,8,,,,8xw4[8:1],17,26,35,4,,,,
{8}8,,26,15,8q5[4:1]/4,,5-2[8:1],,Cf,,B1,,1p4[4:1],,4-7[8:1],,Cf,,B4,,
{16}3x,2,1,8,7,6,5,4,{32}2x,1,8,7,6,5,4,3,2,1,8,7,6,5,4,3,
{8}1x,1,2x/6,26,{16}2x/6-2[8:1],37,48,51,
{8}6xw2b[8:1]/2x,,{32}6bx,B6f,Cf,B2f,,,,,{4},,,,,,,
E
