&title=I Can't Wait(改版)
&artist=D0tc0mmie
&first=0
&lv_1=1
&des_1=
&inote_1=
(125){4},
E
&lv_2=3
&des_2=
&inote_2=
(125){4},
E
&lv_3=8
&des_3=
&inote_3=
(125){4},
E
&lv_4=10
&des_4=
&inote_4=
(125){4},
E
&lv_5=15.1
&des_5=伟伟phira
&inote_5=
(125){4}B7fh[32:39]/B6fh[32:39],,{32}B2fh[32:23]/B3fh[32:23],{16},,,,,,,{32}5b/Cfh[4:1],
4b,5b,4b,5b,4b,5b,{16}4b,{32},,,,,,,1,2,3,{16}4,,1,,,,{32}1,8,
7,6,{8},{16}1,{32},,,,,1,2,3,4,5,{16},{32}1,8,7,6,,,,1<1[8:1],,,,,,,,,,,,,,,,2,
{16},2,{32},2,{16},{32}2,{16},{32}2,{16},{32}2,2<6V42-7-3[16:11],{8},,,,,,,,,{4}2h[4:1],
{32}B1,B2,B3,B4,,,,,,B8,B7,B6,{16}B5,{64}B1f,B2f,B3f,B4f,B5f,B6f,B7f,B8f,{16},,,{64}B8f,
B7f,B6f,B5f,B4f,B3f,B2f,B1f,{32},,,A1f/D2f/A2f/E2f/B1f/B2f,{16},,,A8f/D8f/A7f/E8f/B7f/B8f,,,,A3f/D4f/A4f/E4f/B4f/B3f,,,,A6f/D6f/A5f/E6f/B6f/B5f,
,,,4qq4[0.3##0.18]*pp4[0.3##0.18],{32},,,,,,,,,,,,,5pp5[0.3##0.18]*qq5[0.3##0.18],,,,,,,,,,,,,,,,B2/B1/B8/B7/B6/B5/B4/B3/E4/D4/A3,
{16},,,{8}B8/B1/B7/B2/B6/B3/B5/B4/E4/D4/A3,,B1/B8/B7/B2/B6/B3/B5/B4/E4/D4/A3,,B2/B1/B8/B7/B6/B5/B4/B3/E4/D4/A3,
{32},,,A7f/E7f/B6f/B5f/Cf/B4f/B3f/E3f/A2f,{64},,,,,,,,,,,,,B1f/B8f/B7f/B6f/B5f/B4f,{32},,,,,,,{16}E6f/B6f/B7f/E8f/Cf/E4f/B3f/B2f/E2f/B8f/B4f,{64},,,,,,,,,,,A3f/E3f/B2f/Cf/B7f/A6f/E7f/B8f/B1f,,,,,,,,,,,,,,,,E6f/B6f/E8f/B7f/B8f/Cf/B4f/E4f/B3f/B2f/E2f,
,,,,,,,,,,,D2f/A1f/D1f/A8f/D8f/E8f/B7f/Cf/B2f/B3f/E4f/B6f/D4f/A4f/D5f/A5f/D6f,{4},D2f/A1f/D1f/A8f/D8f/E8f/B7f/B6f/Cf/B2f/B3f/E4f/D4f/A4f/D5f/A5f/D6f,E8f/B7f/B6f/E6f/A5f/A8f/D5f/E4f/B3f/B2f/Cf/D1f/E2f,
E8f/B7f/B6f/E6f/B5f/B4f,{64}E6f/B6f/B7f/E8f/B8f/Cf/B4f/E4f/B3f/B2f/E2f,{32},,,,,,,{64}E4f/B4f/B5f/B3f/Cf/E6f/B6f/B7f/E8f/B8f/B1f,,,,,,,,,,,,E2f/B2f/B3f/B4f,{4},{16}A8f/E8f/B7f/B6f/E6f/A5f/D1f/B1f/Cf/B4f/D5f,
{64},,,,,,,,,,,E6f/B6f/B7f/E8f/Cf/E2f/B2f/B3f/E4f/B8f/B1f,{4},{16}E8f/Cf/E2f/E5f,{32},,,,,B8f/B1f/Cf/B5f/B4f,{64},,,,,,,,,,,B1f/B8f/E8f/B7f/B6f/E6f/Cf,,,,,,,,,,,,E8f/B7f/B6f/E6f/B5f/B4f,
,,,,,,,,,,,,,,,E2f/B1f/B8f/E8f/B7f/Cf/B3f/E4f/B4f/B5f/E6f,,,,E8f/B7f/B6f/E5f/B5f/B4f/B3f/B2f/E2f,{4},{8}E8f/B7f/B6f/E6f/B8f/Cf/B5f,{64},,,,,,,D2f/A1f/D1f/A8f/D8f/A7f/D7f/A6f/D6f/A5f/D5f/A4f/E4f/B3f/Cf,{32},,,,,,,E8f/B7f/B6f/E6f/B5f/B4f,
,,,,,,,E6f/B6f/B7f/E8f/B8f/Cf/B1f/E2f/B2f/B3f/E4f,{16},,,E8f/B7f/E6f/B6f/Cf/E2f/B2f/B3f/E4f,{64},,,,,,,,,,,,,,,,,E8f/B7f/B6f/E6f/B5f/B4f,,,,,,,,E6f/B6f/B7f/E8f/B8f/Cf/B1f/E2f/B2f/B3f/E4f,
,,,,,,,,,,,,,,,,,E8f/B7f/B6f/E6f/B5f/B4f,,,,,,,,,,,,,,,,E6f/B6f/B7f/E8f/B8f/Cf/B1f/E2f/B2f/B3f/E4f,,,,,,,,,,,,,,B2f/B1f/B8f/B7f/B6f/B5f/B4f/B3f/E4f/D4f/A3f,{32},,,,,,,{4}B2f/B1f/B8f/B7f/B6f/B5f/B4f/B3f/D4f/E4f/A3f,
{64}B3f/B2f/B1f/B8f/B7f/B6f/B5f/B4f/E4f/D4f/A3f,{32},,,,,,,{64}B2f/B1f/B8f/B7f/B6f/B5f/B4f/B3f/E4f/D4f/A3f,{32},,,,,,,4,3,2,1,8,7,6,5,4,
3,2,1,8,7,6,5,4,3,2,1,8,7,6,5,4,3,2,1,8,7,6,5,4,3,2,1,8,7,6,5,4,
3,2,1,8,7,6,5,4,3,2,1,8,7,6,5,4,3,2,1,8,7,6,5,4,3,2,1,8,7,6,5,4,
3,2,1,8,7,6,5,4,3,2,1,8,7,6,5,4,3,2,1,8,7,6,5,4,3,2,1,8,7,6,5,4,
3,2,1,8,7,6,5,4,3,2,1,8,7,6,5,4,3,2,1,8,7,6,5,4,3,2,1,8,7,6,5,4,
3,2,1,8,7,6,5,4,3,2,1,8,7,6,5,4,3,2,1,8,7,6,5,4,3,2,1,8,7,6,5,4,
3,2,1,8,7,6,5,4,3,2,1,8,7,6,5,4,3,2,1,8,7,6,5,4,3,2,1,8,7,6,5,4,
3,2,1,8,7,6,5,4,3,2,1,8,7,6,5,4,3,2,1,8,7,6,5,4,3,2,1,8,7,6,5,4,
3,2,1,8,7,6,5,4,3,2,1,8h[32:1],{16},,,,,,,E8f/B7f/B6f/E6f/B5f/B4f/B3f/B2f/B1f/B8f,{32},,,,,A1f/D1f/A8f/E8f/B7f/Cf/B2f/E2f/B3f/E4f/A4f/D5f/A5f/E6f,
,,,,,,,E8f/B7f/B6f/E6f/B5f/B4f/B3f/B2f/B1f/B8f,,,,,,,,A1f/D1f/A8f/B7f/E8f/Cf/B2f/E2f/B3f/E4f/A4f/D5f/A5f/E6f,{4},{16}E8f/B8f/B1f/E2f/Cf/E6f/B5f/E4f/B4f,{8},{4}B2f/B1f/B8f/B7f/B6f/B5f/B4f,
E8f/B7f/B6f/E6f/B8f/Cf/B5f,{32}E8f/B7f/B6f/E6f/Cf/B8f/B4f/E4f/B3f/B2f/E2f,{16},,,{32}E8f/B8f/B1f/E2f/Cf/E6f/B5f/B4f/E4f/B2f/B6f,,,,,,,,E8f/B7f/B6f/E6f/B5f/Cf/B8f,
,,,,,,,E8f/B7f/B6f/E6f/Cf/E2f/B2f/E4f/B3f,,,,,,,,E6f/B6f/B7f/E8f/Cf/B8f/B4f/E4f/B3f/B2f/E2f,,,,,,E2f/B1f/B8f/E8f/B7f/Cf/B3f/E4f/B4f/B5f/E6f,,,,,,,,E6f/B6f/B7f/E8f/B8f/Cf/B4f/E4f/B3f/B2f/E2f,{4},{16}E8f/E2f/Cf/E5f,
{32},,,,,A1f/D1f/A8f/D8f/A7f/D7f/A6f/D6f/A5f/D5f/A4f/E4f/B3f/Cf,,,,,,,,E6f/B6f/B7f/E8f/B8f/Cf/B4f/E4f/B3f/B2f/E2f,{16},,,{8}E8f/B8f/B1f/B7f/B6f/E6f/Cf,
,E8f/B7f/B6f/B5f/E5f/B4f/B3f/B2f/E2f,{32},,,,,,,,,,,,,,,,,,,A1f/D1f/A8f/D8f/A7f/D7f/A6f/D6f/A5f/D5f/A4f/E4f/B3f/Cf,{16},,,,,,,,,,,5qq5b[0.36##0.36]*pp5b[0.36##0.36],
{32},,,,,,,,,,,,,4qq4b[0.42##0.3]*pp4b[0.42##0.3],
,,,,,,,,,,,,,,,B2f/B1f/B8f/B7f/B6f/B5f/B4f/B3f/E4f/D4f/A3f,{16},,,{4}B3f/B2f/B1f/B8f/B7f/B6f/B5f/B4f/E4f/D4f/A3f,
{32}B3f/B2f/B1f/B8f/B7f/B6f/B5f/B4f/E4f/D4f/A3f,{16},,,{32}B3f/B2f/B1f/B8f/B7f/B6f/B5f/B4f/E4f/D4f/A3f,{16},,,{64},{1600},,,,,,,,,,,{50}8<5[25:1]/1>4[25:1],{16},,,{64},,,{1600},,,,,,,{32}A8f/D1f/A1f,{50},,,,,,,,,{100}1<6[25:1]/2>5[25:1],{16},,,{64},,,{1600},,,,,,,,,,,,,,,,,,,,,{16}A1f/D2f/A2f,
{25},,,{100}8>3[25:1]/7<4[25:1],{16},,,{64},,,{1600},,,,,,,,,,,,,,,,,{8}A7f/D8f/A8f,{32},,,1,1,1,1,1,
1,1,1,1,{8}1,{50},,,{100}8/1,5/4,3/6,{50}2h[100:7]/7h[100:7],{100},,,,,,,,,8/1,7/2,6/3,{25}5h[16:1]/4h[16:1],{50},,,{100}8/1,5/4,2/7,3h[16:1]/6-2[0.2112##0.0768],{16},,,{64},{1600},,,,,,,,,,,{100}8/1,5/4,3/2,{50}7h[16:1]/6h[16:1],{10},{100}8/4,1/5,
2/6,3h[16:1]/7h[16:1],,,,,,,,,,4/3,2/1,8/7,{50}6h[16:1]/5-2[0.2112##0.0576],{100},,,,,,,,,,,,,8/1-5[0.1728##0.0576],,,,1,{25},{50}6-1[0.1536##0.0576],,6,,4,,4,,4/8,3/7,2/6,1/5,8/4-8[0.1536##0.0768],,4,,3-8[0.1536##0.0576],,3,,5,,5,,5/1,6/2,7/3,8/4,1/5,{25},,,,{100}2b,
1/3,8/4,7/5h[4:1],{25}6<4>6[0.1536##1.5744],,,,,,,,5h[100:31],{20},,,,,,,{100}4h[50:9],{50},,,,,,,,,5h[100:7],
{20},{100}6,{20},{100}6h[50:11]/7>5[0.096##0.3456],{4},{20}5-8[0.1152##0.096],{50},{25}5h[16:1],{50},,,4-1[0.096##0.1152],{25},4h[25:3],{50},8h[16:1],{16},,,{64},{1600},,,,,,,,,{32}5,
6,7,8,1,2,3,4,5,6,7,8,1,2,3,4,5,6,7,8,1,2,3,4,5,6,7,8,1,2,3/B3f/B2f/B1f/B8f/B7f/B6f/B5f/B4f/E4f/D4f/A3f,,,,,,,,B3f/B2f/B1f/B8f/B7f/B6f/B5f/B4f/E4f/D4f/A3f,
{16},,,{8}B3f/B2f/B1f/B8f/B7f/B6f/B5f/B4f/E4f/D4f/A3f,{32},,,B3f/B2f/B1f/B8f/B7f/B6f/B5f/B4f/E4f/D4f/A3f,{16},,,6-2[0##3.6],{1},{4},,,{32},2-6[0##3.54],
{1},{4},,,{16},{2}6<2[0##3.54],
{1},{4},{16},{32},2>7[0##3.18],
{4},,,,,,,{8}7x/3x,
E
&lv_6=15.8
&des_6=
&inote_6=
(125){4},
E
&lv_7=114
&des_7=
&inote_7=
(125){4},
E
